Today is a free download without charge Download

Доставить по назначению / The Package (Эндрю Дэвис / Andrew Davis) [1989, США, Шпионский боевик, триллер, HDTV 1080i] DVO

Reply to topic
 
Author
Message

Omen ®

Longevity: 8 years 5 months

Posts: 181087

Торрент-статистика

Post 17-Apr-2013 19:00

[Quote]

Доставить по назначению / The Package
Страна: США
Студия: Metro-Goldwyn-Mayer Studios Inc.
Жанр: Шпионский боевик, триллер
Год выпуска: 1989
Продолжительность: 01:43:42
Перевод: Профессиональный (двухголосый закадровый)
Cубтитры: нет
Режиссер: Эндрю Дэвис / Andrew Davis
В ролях: Джин Хэкмен, Джоэнна Кэссиди, Томми Ли Джонс, Джон Херд, Дэннис Франц, Пэм Грайр, Кевин Краули, Рон Дин, Натан Дэвис, Челци Росс
Описание: По окончании «холодной войны» сверхдержавы СССР и США готовят договор о глобальном сокращении всех видов вооружения. Но группа влиятельных военных приводит в действие тайный заговор с целью сорвать подписание договора. И начинается тайная война. Заказные политические убийства происходят одно за другим. Гибнут невинные люди.
Сержант Джонни Галлахер должен доставить в США арестованного, оказавшегося солдатом сил спецназа. Но по прибытии в Вашингтон, «груз» исчезает при загадочных обстоятельствах. Галлахер начинает собственное расследование, в ходе которого узнает о причастности к политическим убийствам сбежавшего арестованного. Джонни Галлахер теперь единственный, кто способен предотвратить новые убийства.

Доп. информация

Казалось бы рутинная работа по обеспечению безопасности участников важных переговоров в результате которых должен был быть положен конец «Холодной войне», оборачивается борьбой за жизнь отдельных личностей и за мировую безопасность в целом.
Напряжение идет по нарастающей и фильм достаточно смотрибельный, учитывая тем более великолепный актерский состав. Конечно, ни Джин Хэкман, ни Томми Ли Джонс, не показывают своих лучших качеств, что в принципе от них и не требовалось. Уровень драматизма в фильме не позволяет актерам показать весь спектр своих возможностей. Из актерского состава стоит отметить Денниса Франца, и сыгравшую в эпизодической роли Пэм Гриер, смотря на которую в военной форме, невольно вспоминалась Джеки Браун. Да и расхаживающий в фильме первый секретарь компартии почти один в один похож на известного нам первого Президента СССР.
Необходимо отметить что, фильм «Доставить по назначению» относится к тем малочисленным голливудским картинам, в которых Советский Союз, читай Россия, представлен достаточно нейтрально, нет бросающихся в глаза неточностей и особенно попыток представить Россию в нелучшем свете. Что согласитесь редкость.
Под конец стоит отметить, что не смотря на то, что в фильме нет ничего нового, однако скрасить вечер он вполне может.
Сэмпл: http://www.sendspace.com/file/5bagwx
Тип релиза: HDTV 1080i
Контейнер: M2TS
Видео: AVC, 1920х1080, 16:9, 8935 Kбит/сек, 25 fps
Аудио: MPEG Audio, 192 Кбит/сек, 48 КГц, 2 канала

MediaInfo

Общее
Идентификатор : 1 (0x1)
Полное имя : The Package (Edited).m2ts
Формат : BDAV
Формат/Информация : Blu-ray Video
Размер файла : 6,89 Гбайт
Продолжительность : 1 ч. 43 м.
Режим общего битрейта : Переменный
Общий поток : 9513 Кбит/сек
Видео
Идентификатор : 4113 (0x1011)
Идентификатор меню : 1 (0x1)
Формат : AVC
Формат/Информация : Advanced Video Codec
Профиль формата : [email protected]
Параметр CABAC формата : Да
Параметр ReFrames формата : 3 кадра
Параметр GOP формата : M=4, N=32
Идентификатор кодека : 27
Продолжительность : 1 ч. 43 м.
Битрейт : 8935 Кбит/сек
Ширина : 1920 пикселей
Высота : 1080 пикселей
Соотношение сторон : 16:9
Частота кадров : 25,000 кадров/сек
Стандарт вещания : PAL
Цветовое пространство : YUV
Субдискретизация насыщенности : 4:2:0
Битовая глубина : 8 бит
Тип развёртки : Чересстрочная
Порядок развёртки : Верхнее поле первое
Бит/(Пиксели*Кадры) : 0.172
Размер потока : 6,47 Гбайт (94%)
Основные цвета : BT.709
Характеристики трансфера : BT.709
Коэффициенты матрицы : BT.709
Аудио
Идентификатор : 4352 (0x1100)
Идентификатор меню : 1 (0x1)
Формат : MPEG Audio
Версия формата : Version 1
Профиль формата : Layer 2
Идентификатор кодека : 4
Продолжительность : 1 ч. 43 м.
Вид битрейта : Постоянный
Битрейт : 192 Кбит/сек
Каналы : 2 канала
Частота : 48,0 КГц
Метод сжатия : С потерями
Задержка видео : 92 мс.
Размер потока : 142 Мбайт (2%)
Язык : std
Язык, дополнительно : Clean effects

Скриншоты

Other forum [Profile] [PM]
Display posts from previous:    
Reply to topic

The time now is: Today 10:13

All times are GMT + 3 Hours



You cannot post new topics in this forum
You cannot reply to topics in this forum
You cannot edit your posts in this forum
You cannot delete your posts in this forum
You cannot vote in polls in this forum
You cannot attach files in this forum
You cannot download files in this forum