Today is a free download without charge Download

Под прикрытием / Серии: 1 из 12 (Тимур Алпатов) [2012, Криминал, HDTVRip - 720р]

Reply to topic
 
Author
Message

Omen ®

Longevity: 9 years 1 month

Posts: 181086

Торрент-статистика

Post 17-Apr-2013 10:48

[Quote]

Под прикрытием- Год выпуска: 2012
Производство: Россия, "DT Production"
Жанр: Криминал
Продолжительность: ~ 00:50:00
Субтитры: нет-Режиссёр: Тимур Алпатов-В ролях: Сергей Газаров, Владимир Яглыч, Владислав Котлярский, Гурам Баблишвили, Софья Торосян, Максим Важов, Карина Разумовская, Михаил Солодко, Эдуард Рябинин, Денис Кудрявцев, Анатолий Отраднов, Егор Вадов, Глория Августинович и другие.-Описание: Высокобюджетный приключенческий боевик от режиссера «Глухаря». Что будет, если во время операции по внедрению в преступную группировку офицер ФСБ влюбится в дочь главаря? ФСБ на протяжении длительного времени следила за известной преступной организацией, и последние донесения вызвали серьезные опасения: объемы денежных средств, проходящие через эту группировку, просто ужасают. Эта криминальная группировка занимается всеми видами преступного бизнеса, начиная от обычного вымогательства и предоставления "крыши" коммерсантам, завершая проведением многоуровневых афер с госсредствами. Все попытки разоблачить преступников и предать справедливому суду заканчиваются провалом. Существует лишь один способ арестовать преступников - внедрение крота в криминальную группировку, чтобы изнутри добыть необходимую информацию и всевозможные улики. В качестве агента был выбран молодой сотрудник оперативного отдела. Все шло, как и планировалось, пока с внедренным агентом не произошла оказия - он по уши влюбился в дочь главаря криминальной группировки. И теперь вся операция находится под угрозой срыва.
Сэмпл-Качество: HDTVRip - AVC
Видео кодек: H.264
Аудио кодек: AC3
Видео: x264, 1280 х 720 (16:9), 25,000 кадр/сек, ~ 3500 Кбит/сек, ~ 0.152 bit/pixel
Аудио: AC3, 48.0 KHz, 2 канала(ов), 384 Kbps

MI

Complete name : Под прикрытием.01 серия.2012.HDTVRip-720p.Metla111.mkv
Format : Matroska
Format version : Version 2
File size : 1.37 GiB
Duration : 50mn 33s
Overall bit rate : 3 886 Kbps
Encoded date : UTC 2013-04-16 23:24:03
Writing application : mkvmerge v5.8.0 ('No Sleep / Pillow') built on Sep 2 2012 15:37:04
Writing library : libebml v1.2.3 + libmatroska v1.3.0
Video
ID : 1
Format : AVC
Format/Info : Advanced Video Codec
Format profile : [email protected]
Format settings, CABAC : Yes
Format settings, ReFrames : 10 frames
Codec ID : V_MPEG4/ISO/AVC
Duration : 50mn 33s
Bit rate : 3 500 Kbps
Width : 1 280 pixels
Height : 720 pixels
Display aspect ratio : 16:9
Frame rate mode : Constant
Frame rate : 25.000 fps
Color space : YUV
Chroma subsampling : 4:2:0
Bit depth : 8 bits
Scan type : Progressive
Bits/(Pixel*Frame) : 0.152
Stream size : 1.21 GiB (88%)
Writing library : x264 core 125 r2208 d9d2288
Encoding settings : cabac=1 / ref=10 / deblock=1:-2:-1 / analyse=0x3:0x113 / me=umh / subme=9 / psy=1 / psy_rd=1.00:0.10 / mixed_ref=1 / me_range=32 / chroma_me=1 / trellis=2 / 8x8dct=1 / cqm=0 / deadzone=21,11 / fast_pskip=0 / chroma_qp_offset=-3 / threads=12 / lookahead_threads=2 / sliced_threads=0 / nr=0 / decimate=0 / interlaced=0 / bluray_compat=0 / constrained_intra=0 / bframes=9 / b_pyramid=2 / b_adapt=2 / b_bias=0 / direct=3 / weightb=1 / open_gop=0 / weightp=2 / keyint=250 / keyint_min=25 / scenecut=40 / intra_refresh=0 / rc_lookahead=60 / rc=2pass / mbtree=0 / bitrate=3500 / ratetol=1.0 / qcomp=0.65 / qpmin=0 / qpmax=69 / qpstep=4 / cplxblur=20.0 / qblur=0.5 / vbv_maxrate=50000 / vbv_bufsize=62500 / nal_hrd=none / ip_ratio=1.40 / pb_ratio=1.30 / aq=1:0.90
Default : Yes
Forced : No
Color primaries : BT.709
Transfer characteristics : BT.709
Matrix coefficients : BT.709
Audio
ID : 2
Format : AC-3
Format/Info : Audio Coding 3
Mode extension : CM (complete main)
Format settings, Endianness : Big
Codec ID : A_AC3
Duration : 50mn 33s
Bit rate mode : Constant
Bit rate : 384 Kbps
Channel(s) : 2 channels
Channel positions : Front: L R
Sampling rate : 48.0 KHz
Bit depth : 16 bits
Compression mode : Lossy
Stream size : 139 MiB (10%)
Default : Yes
Forced : No

Log - x264

raw [info]: 1280x720p 1:1 @ 25/1 fps (cfr)
x264 [info]: using SAR=1/1
x264 [info]: using cpu capabilities: MMX2 SSE2Fast SSSE3 FastShuffle SSE4.2 AVX XOP FMA4 FMA3 SSEMisalign LZCNT BMI1 TBM
x264 [info]: profile High, level 4.1
x264 [info]: frame I:662 Avg QP:22.62 size: 79339
x264 [info]: frame P:15674 Avg QP:24.36 size: 29415
x264 [info]: frame B:59497 Avg QP:25.56 size: 13672
x264 [info]: consecutive B-frames: 1.7% 1.4% 8.6% 14.2% 14.7% 56.1% 3.0% 0.2% 0.1% 0.0%
x264 [info]: mb I I16..4: 11.6% 73.7% 14.7%
x264 [info]: mb P I16..4: 4.8% 14.9% 1.6% P16..4: 50.7% 15.9% 9.0% 0.0% 0.0% skip: 2.9%
x264 [info]: mb B I16..4: 0.4% 1.3% 0.1% B16..8: 44.5% 6.5% 1.4% direct:10.0% skip:35.9% L0:43.1% L1:51.7% BI: 5.2%
x264 [info]: 8x8 transform intra:70.9% inter:64.1%
x264 [info]: direct mvs spatial:98.9% temporal:1.1%
x264 [info]: coded y,uvDC,uvAC intra: 75.0% 70.2% 26.8% inter: 27.9% 23.2% 2.7%
x264 [info]: i16 v,h,dc,p: 26% 19% 9% 46%
x264 [info]: i8 v,h,dc,ddl,ddr,vr,hd,vl,hu: 8% 8% 4% 10% 16% 15% 15% 12% 13%
x264 [info]: i4 v,h,dc,ddl,ddr,vr,hd,vl,hu: 9% 12% 3% 9% 14% 14% 15% 11% 15%
x264 [info]: i8c dc,h,v,p: 32% 27% 22% 19%
x264 [info]: Weighted P-Frames: Y:4.6% UV:2.7%
x264 [info]: ref P L0: 52.6% 12.1% 17.7% 5.0% 3.9% 2.7% 2.4% 1.2% 1.1% 1.1% 0.1% 0.0%
x264 [info]: ref B L0: 86.2% 8.2% 2.5% 1.1% 0.7% 0.6% 0.4% 0.2% 0.1%
x264 [info]: ref B L1: 95.2% 4.8%
x264 [info]: kb/s:3499.79

Скриншоты

Внимание ! Раздача ведётся путём добавления новых серий

Внимание! Раздача ведётся путём добавления новых серий; при каждом добавлении создаётся новый торрент. Чтобы начать докачку новой серии, пользователям необходимо сделать следующее:
(1) остановить скачивание,
(2) удалить старый торрент у себя из клиента (старые серии удалять не надо),
(3) скачать новый торрент и запустить его у себя в клиенте вместо старого, при этом указать клиенту путь в старую папку куда и должно происходить скачивание новых серий.
Ваш клиент при этом должен произвести хеширование (проверку) старой папки (если не производит сам - помогите ему сделать это), и будет докачивать только те серии которых у вас ещё нет. Старые серии при этом не удаляются, а продолжают раздаваться!
Если вы уже удалили старые серии, то предотвратить повторную закачку старых серий можно, отжав галочку в соответствующих местах при запуске нового торрента. По возможности, желательно не удалять старые серии как можно дольше чтобы релизёр не столько продолжал раздавать старые серии, а смог сконцентрироваться на новых.
Other forum [Profile] [PM]
Display posts from previous:    
Reply to topic

The time now is: Today 22:36

All times are GMT + 3 Hours



You cannot post new topics in this forum
You cannot reply to topics in this forum
You cannot edit your posts in this forum
You cannot delete your posts in this forum
You cannot vote in polls in this forum
You cannot attach files in this forum
You cannot download files in this forum