Today is a free download without charge Download

Две жизни / Passion of mind (Ален Берлинер / Alain Berliner) [2000, США, Драма, мистика, HDTV 1080i] DVO (ТПО Ред Медиа)+MVO+Original Eng+Sub Rus

Reply to topic
 
Author
Message

Omen ®

Longevity: 8 years 5 months

Posts: 181087

Торрент-статистика

Post 17-Apr-2013 10:48

[Quote]

Две жизни / Passion of mind
Страна: США
Студия: Lakeshore Entertainment, Ron Bass Productions
Жанр: Драма, мистика
Год выпуска: 2000
Продолжительность: 01:40:26
Перевод: Профессиональный (двухголосый закадровый) ТПО Ред Медиа + MVO
Cубтитры: Русские
Режиссер: Ален Берлинер / Alain Berliner
В ролях: Деми Мур /Demi Moore/, Питер Ригерт /Peter Riegert/, Джулианна Николсон /Julianne Nicholson/, Уильям Фихтнер /William Fichtner/, Джосс Эклэнд /Joss Ackland/, Джерри Бэмман /Gerry Bamman/, Сигурджон Сигхватссон /Sigurjon Sighvatsson/, Стеллан Скарсгард /Stellan Skarsgard/, Шинейд Кьюсак /Sinead Cusack/
Описание: Милая Мари - недавно овдовевшая мать двух прелестных дочерей - ведет тихую спокойную жизнь в живописном французском городке. Но каждую ночь она попадает в другую реальность, превращаясь в современную преуспевающую женщину. Очаровательная Марти возглавляет литературное издательство в Нью-Йорке. Сжигая сердца поклонников, красотка наслаждается стремительным темпом городской жизни. Блуждая во сне и наяву, Марти-Мари теряет связь с реальным миром, не зная, что существует на самом деле, а что - лишь плод ее воображения.

Тип релиза: HDTV 1080i
Контейнер: mkv
Видео: AVC 1920x1080 (16:9) 25.000fps Bit rate 4628Kbps
Аудио 1: AC3 48.0 KHz 2ch 192 Kbps DVO rus
Аудио 2: AC3 48.0 KHz 6ch 448 Kbps MVO rus
Аудио 3: AC3 48.0 KHz 6ch 448 Kbps original eng
Субтитры русские

MediaInfo

General
Complete name : E:\torrent\Две_жизни.mkv
Format : Matroska
File size : 4.05 GiB
Duration : 1h 40mn
Overall bit rate : 5 772 Kbps
Encoded date : UTC 2013-04-17 05:23:06
Writing application : mkvmerge v5.7.0 ('The Whirlwind') built on Jul 8 2012 20:08:51
Writing library : libebml v1.2.3 + libmatroska v1.3.0
Video
ID : 1
Format : AVC
Format/Info : Advanced Video Codec
Format profile : [email protected]
Format settings, CABAC : Yes
Format settings, ReFrames : 3 frames
Muxing mode : Container [email protected]
Codec ID : V_MPEG4/ISO/AVC
Duration : 1h 40mn
Bit rate : 4 569 Kbps
Width : 1 920 pixels
Height : 1 080 pixels
Display aspect ratio : 16:9
Frame rate : 50.000 fps
Original frame rate : 25.000 fps
Standard : Component
Color space : YUV
Chroma subsampling : 4:2:0
Bit depth : 8 bits
Scan type : Interlaced
Scan order : Top Field First
Bits/(Pixel*Frame) : 0.044
Stream size : 3.21 GiB (79%)
Title : Две жизни
Color primaries : BT.709-5, BT.1361, IEC 61966-2-4, SMPTE RP177
Transfer characteristics : BT.709-5, BT.1361
Matrix coefficients : BT.709-5, BT.1361, IEC 61966-2-4 709, SMPTE RP177
Audio #1
ID : 2
Format : AC-3
Format/Info : Audio Coding 3
Mode extension : CM (complete main)
Codec ID : A_AC3
Duration : 1h 40mn
Bit rate mode : Constant
Bit rate : 192 Kbps
Channel(s) : 2 channels
Channel positions : Front: L R
Sampling rate : 48.0 KHz
Bit depth : 16 bits
Stream size : 138 MiB (3%)
Title : Две жизни_DVO_rus_1
Audio #2
ID : 3
Format : AC-3
Format/Info : Audio Coding 3
Mode extension : CM (complete main)
Codec ID : A_AC3
Duration : 1h 40mn
Bit rate mode : Constant
Bit rate : 448 Kbps
Channel(s) : 6 channels
Channel positions : Front: L C R, Side: L R, LFE
Sampling rate : 48.0 KHz
Bit depth : 16 bits
Stream size : 322 MiB (8%)
Title : Две жизни_MVO_rus_2
Audio #3
ID : 4
Format : AC-3
Format/Info : Audio Coding 3
Mode extension : CM (complete main)
Codec ID : A_AC3
Duration : 1h 40mn
Bit rate mode : Constant
Bit rate : 448 Kbps
Channel(s) : 6 channels
Channel positions : Front: L C R, Side: L R, LFE
Sampling rate : 48.0 KHz
Bit depth : 16 bits
Stream size : 322 MiB (8%)
Title : Две жизни_eng
Text
ID : 5
Format : UTF-8
Codec ID : S_TEXT/UTF8
Codec ID/Info : UTF-8 Plain Text
Other forum [Profile] [PM]
Display posts from previous:    
Reply to topic

The time now is: Today 10:59

All times are GMT + 3 Hours



You cannot post new topics in this forum
You cannot reply to topics in this forum
You cannot edit your posts in this forum
You cannot delete your posts in this forum
You cannot vote in polls in this forum
You cannot attach files in this forum
You cannot download files in this forum