Today is a free download without charge Download

Группа «З.О.В.»: Задания особой важности. Операция «Тайфун» (1-4 серии из 4)(2013) DVD9

Reply to topic
 
Author
Message

UndegraundMen ®

Longevity: 8 years 9 months

Posts: 25145

Торрент-статистика

Post 17-Apr-2013 00:00

[Quote]

Группа «З.О.В.»: Задания особой важности. Операция «Тайфун» (1-4 серии из 4)(2013) DVD9- Русское название: Группа «З.О.В.»: Задания особой важности. Операция «Тайфун»
Год выпуска: 2013
Жанр: Приключения, военный
Производство: Россия
Описание фильма:
Сериал рассказывает о группе советских разведчиков-диверсантов, выполняющих во время Второй мировой войны задания особой важности. Первое задание — уничтожить стратегические склады горючего, захваченные немцами во время стремительного наступления. Второе — уничтожить лабораторию, в которой немцами разрабатываются прототипы невидимых для радаров сверхзвуковых самолетов. Выполнение заданий сильно усложняет тот факт, что в первоначальном составе группы 3 мужчины и 2 женщины — без роковых любовных треугольников тут не обойтись…
Режиссер: Петр Амелин
Актеры: Эдуард Трухменёв, Мария Куликова, Сергей Баталов, Марина Казанкова, Андрей Аксенов, Елена Радевич, Андрей Павловец, Александр Ленин, Дмитрий Дячук, Даниил Воропаев...
Продолжительность: 4 x 00:44:36

Дата мировой премьеры: 14 апреля 2013
Видеокодек: MPEG-2
Битрейт видео: ~5401 kbps
Размер кадра: 720х[email protected]
Качество видео: DVD9 R5
Аудио: (Dolby AC3, 2ch) 192 kbps Русский

Дополнительно

Cубтитры: Нет
Доп.материалы: Нет

DVDInfo

Title: Gruppa.Z.O.V-Zadaniya.osoboy.vazhnosti.2013.nnm.DVD9
Size: 7.17 Gb ( 7 520 580,00 KBytes ) - DVD-9
Enabled regions: 1, 2, 3, 4, 5, 6, 7, 8
VTS_01 :
Play Length: 00:00:25+{00:00:25}+{00:00:25}
Video: PAL 4:3 (720x576) VBR
Audio:
  • Russian (Dolby AC3, 6 ch)
  • English (Dolby AC3, 6 ch)
  • English (Dolby AC3, 6 ch)
    VTS_02 :
    Play Length: 00:43:40
    Video: PAL 16:9 (720x576) VBR, Auto Pan&Scan, Auto Letterboxed
    Audio:
  • Russian (Dolby AC3, 2 ch)
    VTS_03 :
    Play Length: 00:44:27
    Video: PAL 16:9 (720x576) VBR, Auto Pan&Scan, Auto Letterboxed
    Audio:
  • Russian (Dolby AC3, 2 ch)
    VTS_04 :
    Play Length: 00:44:50
    Video: PAL 16:9 (720x576) VBR, Auto Pan&Scan, Auto Letterboxed
    Audio:
  • Russian (Dolby AC3, 2 ch)
    VTS_05 :
    Play Length: 00:44:49
    Video: PAL 16:9 (720x576) VBR, Auto Pan&Scan, Auto Letterboxed
    Audio:
  • Russian (Dolby AC3, 2 ch)

MediaInfo

Общее
Полное имя : I:\Kino\Группа «З.О.В.»\Gruppa.Z.O.V-Zadaniya.osoboy.vazhnosti.2013.nnm.DVD9\VIDEO_TS\VTS_03_1.VOB
Формат : MPEG-PS
Размер файла : 1024 Мбайт
Продолжительность : 25 м.
Режим общего битрейта : Переменный
Общий поток : 5707 Кбит/сек
Видео
Идентификатор : 224 (0xE0)
Формат : MPEG Video
Версия формата : Version 2
Профиль формата : [email protected]
Параметр BVOP формата : Да
Параметр матрицы формата : По умолчанию
Параметр GOP формата : M=3, N=12
Продолжительность : 25 м.
Вид битрейта : Переменный
Битрейт : 5401 Кбит/сек
Максимальный битрейт : 8000 Кбит/сек
Ширина : 720 пикселей
Высота : 576 пикселей
Соотношение сторон : 16:9
Частота кадров : 25,000 кадров/сек
Стандарт вещания : PAL
Цветовое пространство : YUV
Субдискретизация насыщенности : 4:2:0
Битовая глубина : 8 бит
Тип развёртки : Чересстрочная
Порядок развёртки : Верхнее поле первое
Метод сжатия : С потерями
Бит/(Пиксели*Кадры) : 0.521
Размер потока : 969 Мбайт (95%)
Аудио
Идентификатор : 189 (0xBD)-128 (0x80)
Формат : AC-3
Формат/Информация : Audio Coding 3
Расширение режима : CM (complete main)
Режим смешивания : DVD-Video
Продолжительность : 25 м.
Вид битрейта : Постоянный
Битрейт : 192 Кбит/сек
Каналы : 2 канала
Расположение каналов : Front: L R
Частота : 48,0 КГц
Битовая глубина : 16 бит
Метод сжатия : С потерями
Размер потока : 34,4 Мбайт (3%)
Меню

Скриншоты меню

   
Скриншоты:      
     
Other forum [Profile] [PM]
Display posts from previous:    
Reply to topic

The time now is: Today 17:26

All times are GMT + 3 Hours



You cannot post new topics in this forum
You cannot reply to topics in this forum
You cannot edit your posts in this forum
You cannot delete your posts in this forum
You cannot vote in polls in this forum
You cannot attach files in this forum
You cannot download files in this forum