Today is a free download without charge Download

Операция «Кукловод» [1-2 серии из 32] (2013) SATRip [Обновляемая]

Reply to topic
 
Author
Message

UndegraundMen ®

Longevity: 8 years 9 months

Posts: 25145

Торрент-статистика

Post 17-Apr-2013 00:00

[Quote]

Операция «Кукловод» [1-4 серии из 32] (2013) SATRip [Обновляемая]- Русское название: Операция «Кукловод»
Выпущено: Россия
Год выпуска: 2013
Жанр: Детектив
Перевод: Оригинал (Русский)
Субтитры: Отсутствуют

Дата российской премьеры: 15 апреля 2013
Режиссер: Карен Захаров
Актеры: Анастасия Панина, Владимир Яглыч, Денис Варенов, Евгения Чиркова, Андрей Москвичев, Ирина Баринова, Александр Никольский, Андрей Муравьёв, Татьяна Косач-Брындина, Александр Сергеев, Роман Гредин, Екатерина Куликова, Витас Эйзенах, Максим Башкин, Иван Гар, Алла Малкова
Описание фильма:
Разработана операция по обезвреживанию опасного рецидивиста торгующего оружием. Возглавлял операцию майор ФСБ Иван Королёв, но что то пошло не по плану и группа попала в засаду, майор был тяжело ранен. После реабилитации Королёв переходит на более спокойную службу в аналитический отдел, но это так только казалось, бывших майоров не бывает и вся жизнь как на бомбе. Иван с новыми сослуживцами попадает в самое пекло событий, происшедших по вине Перецкого - давнего и заядлого врага России. Перецкий заработал баснословные капиталы путём торговлей оружия, но сейчас вынужден бежать за рубеж, так не поквитавшись со своими недругами и на первом месте майор Королёв
Продолжительность: 4 х ~ 00:42:37 серия
Качество видео: SATRip
Видеокодек: XviD
Битрейт видео: ~1501 Kbit/s
Размер кадра: 720 x 384
Аудиокодек: MP3, 2.0
Битрейт аудио: 128 Kbit/sВнимание! Раздача ведётся путём добавления новых серий

Внимание! Раздача ведётся путём добавления новых серий. Описание обновления торрента.

Внимание! Раздача ведётся путём добавления новых серий; при каждом добавлении создётся новый торрент. Чтобы начать докачку новой серии, пользователям необходимо сделать следующее:
(1) остановить скачивание,
(2) удалить старый торрент у себя из клиента (старые серии удалять не надо),
(3) скачать новый торрент и запустить его у себя в клиенте вместо старого, при этом указать клиенту путь в старую папку куда и должно происходить скачивание новых серий.
Ваш клиент при этом должен произвести хеширование (проверку) старой папки (если не производит сам - помогите ему сделать это), и будет докачивать только те серии которых у вас ещё нет. Старые серии при этом не удаляются, а продолжают раздаваться!
Eсли вы уже удалили старые серии, то предотвратить повторную закачку старых серий можно, отжав галочку в соответсвующих местах при запуске нового торрента. По возможности, желательно не удалять старые серии как можно дольше чтобы релизёр не столько продолжал раздавать старые серии, а смог сконцентрироваться на новых.

MediaInfo

Общее
Полное имя : D:\Торренты\Операция Кукловод.2013.SATRip\Операция. Кукловод.(01.serija).2013.SATRip.avi
Формат : AVI
Формат/Информация : Audio Video Interleave
Размер файла : 500 Мбайт
Продолжительность : 42 м.
Общий поток : 1639 Кбит/сек
Программа кодирования : VirtualDubMod 1.5.10.2 (build 2540/release)
Библиотека кодирования : VirtualDubMod build 2540/release
Видео
Идентификатор : 0
Формат : MPEG-4 Visual
Профиль формата : [email protected]
Параметр BVOP формата : Нет
Параметр QPel формата : Нет
Параметр GMC формата : Без точки перехода
Параметр матрицы формата : Default (H.263)
Идентификатор кодека : XVID
Идентификатор кодека/Подсказка : XviD
Продолжительность : 42 м.
Битрейт : 1501 Кбит/сек
Ширина : 720 пикс.
Высота : 384 пикс.
Соотношение сторон : 1,875
Частота кадров : 25,000 кадр/сек
Цветовое пространство : YUV
Подвыборка цветности : 4:2:0
Битовая глубина : 8 бит
Тип развёртки : Прогрессивная
Метод сжатия : С потерями
Бит/(Пиксели*Кадры) : 0.217
Размер потока : 458 Мбайт (92%)
Библиотека кодирования : XviD 1.1.2 (UTC 2006-11-01)
Аудио
Идентификатор : 1
Формат : MPEG Audio
Версия формата : Version 1
Профиль формата : Layer 3
Режим : Joint stereo
Расширение режима : MS Stereo
Идентификатор кодека : 55
Идентификатор кодека/Подсказка : MP3
Продолжительность : 42 м.
Вид битрейта : Постоянный
Битрейт : 128 Кбит/сек
Каналы : 2 канала
Частота : 48,0 КГц
Метод сжатия : С потерями
Размер потока : 39,0 Мбайт (8%)
Выравнивание : Разделение по промежуткам
Продолжительность промежутка : 40 мс. (1,00 видеокадр)
Время предзагрузки промежутка : 500 ms
Библиотека кодирования : LAME3.98
Скриншоты:
           
Время раздачи: 24/7 по возможности
Other forum [Profile] [PM]
Display posts from previous:    
Reply to topic

The time now is: Today 05:47

All times are GMT + 3 Hours



You cannot post new topics in this forum
You cannot reply to topics in this forum
You cannot edit your posts in this forum
You cannot delete your posts in this forum
You cannot vote in polls in this forum
You cannot attach files in this forum
You cannot download files in this forum