Today is a free download without charge Download

Death Billiards / Смертельный бильярд [2013, MV] BDRip Hi10p 720p Rus

Reply to topic
 
Author
Message

UndegraundMen ®

Longevity: 8 years 11 months

Posts: 25145

Торрент-статистика

Post 17-Apr-2013 00:00

[Quote]

デスビリヤード / Death Billiards / Смертельный бильярд- Жанр: драма, мистика, психология
Тип: Короткометражный фильм
Продолжительность: 25 мин
Выпуск: 02.03.2013
Автор оригинала: Татикава Юдзуру
Режиссер: Татикава Юдзуру
Студия:
Качество: BDRip
Формат: MKV
Видео: H.264, 10 bit, 1280x720, 23.976 fps, ~ 3000 Кбит/сек
Аудио: AC3, 48.0Hz, 192 Kbps (русский поверх японского)
Релиз: ANIMEDIATV
Перевод: Kitsune
Озвучивание: Moony & MeiSei
Описание:
Этот фильм повествует о двух мужчинах. Оказавшись в странном клубе, им предлагают сыграть в игру, которую выберет рулетка. Но игра сильно усложняется, когда им говорят что "ставка в этой игре - ваша жизнь"...

Тех. параметры:

General
Format : Matroska
Format version : Version 4 / Version 2
File size : 589 MiB
Duration : 25mn 14s
Overall bit rate : 3 263 Kbps
Encoded date : UTC 2013-04-15 12:21:47
Writing application : mkvmerge v6.1.0 ('Old Devil') built on Mar 2 2013 14:32:37
Writing library : libebml v1.3.0 + libmatroska v1.4.0
Attachment : Yes / Yes / Yes
Video
ID : 1
Format : AVC
Format/Info : Advanced Video Codec
Format profile : High [url=mailto:[email protected]][email protected][/url]
Format settings, CABAC : Yes
Format settings, ReFrames : 9 frames
Codec ID : V_MPEG4/ISO/AVC
Duration : 25mn 14s
Bit rate : 3 006 Kbps
Width : 1 280 pixels
Height : 720 pixels
Display aspect ratio : 16:9
Frame rate mode : Constant
Frame rate : 23.976 fps
Color space : YUV
Chroma subsampling : 4:2:0
Bit depth : 10 bits
Scan type : Progressive
Bits/(Pixel*Frame) : 0.136
Stream size : 543 MiB (92%)
Writing library : x264 core 125 r2200+677M 3a754e7
Encoding settings : cabac=1 / ref=9 / deblock=1:-2:-2 / analyse=0x3:0x133 / me=umh / subme=10 / psy=1 / fade_compensate=0.00 / psy_rd=0.80:0.25 / mixed_ref=1 / me_range=24 / chroma_me=1 / trellis=2 / 8x8dct=1 / cqm=0 / deadzone=6,6 / fast_pskip=1 / chroma_qp_offset=-4 / threads=18 / lookahead_threads=3 / sliced_threads=0 / nr=0 / decimate=0 / interlaced=0 / bluray_compat=0 / constrained_intra=0 / fgo=0 / bframes=12 / b_pyramid=2 / b_adapt=2 / b_bias=0 / direct=3 / weightb=1 / open_gop=0 / weightp=2 / keyint=250 / keyint_min=23 / scenecut=40 / intra_refresh=0 / rc_lookahead=60 / rc=crf / mbtree=1 / crf=16.0000 / qcomp=0.80 / qpmin=0 / qpmax=81 / qpstep=4 / ip_ratio=1.10 / aq=3:0.50
Language : English
Default : Yes
Forced : No
Audio
ID : 2
Format : AC-3
Format/Info : Audio Coding 3
Mode extension : CM (complete main)
Format settings, Endianness : Big
Codec ID : A_AC3
Duration : 25mn 14s
Bit rate mode : Constant
Bit rate : 192 Kbps
Channel(s) : 2 channels
Channel positions : Front: L R
Sampling rate : 48.0 KHz
Bit depth : 16 bits
Compression mode : Lossy
Stream size : 34.7 MiB (6%)
Title : Moony & MeiSei
Language : Russian
Default : Yes
Forced : No
-            -Время раздачи: До первых сидов-[url=/forum/viewtopic.php?t=644637]Death Billiards / Смертельный бильярд [2013, MV] BDRip Hi10p 1080p Rus[/url]
Other forum [Profile] [PM]
Display posts from previous:    
Reply to topic

The time now is: Today 02:21

All times are GMT + 3 Hours



You cannot post new topics in this forum
You cannot reply to topics in this forum
You cannot edit your posts in this forum
You cannot delete your posts in this forum
You cannot vote in polls in this forum
You cannot attach files in this forum
You cannot download files in this forum