Today is a free download without charge Download

Discovery. Кальмар-убийца / Discovery. Killer Squid (2004) SATRip

Reply to topic
 
Author
Message

UndegraundMen ®

Longevity: 7 years 7 months

Posts: 25145

Торрент-статистика

Post 17-Apr-2013 00:00

[Quote]

Discovery. Кальмар-убийца / Discovery. Killer Squid (2004) SATRip- Русское название: Discovery. Кальмар-убийца
Оригинальное название: Discovery. Killer Squid
Режиссер / Телекомпания: Discovery Channel, Granada, Питер Венн, Эллисон Бин
Год выпуска: 2004
Жанр: Документальный
Описание:
Кальмары являются одними из наиболее опасных и наименее известных океанских хищников. Discovery Channel исследует мир кальмара Гумбольдта. Неуловимый и склонный к каннибализму, гигантский кальмар или кальмар Гумбольдта обладает настолько устрашающей репутацией, что даже получил прозвище "красный дьявол". Агрессивный хищник, кальмар Гумбольдта обладает сильными щупальцами, великолепным зрением под водой и острым как бритва клювом, легко раздирающим плоть жертвы. Он способен стремительно менять цвет, участвуя в сложной системе коммуникаций. Смена цветов контролируется мозгом и служит визуальным сигналом, цель которого неизвестна. Впрочем, большинство привычек этого существа остаются загадкой для ученых. Что неудивительно - в плену этот вид живет не дольше нескольких дней, а на воле его изучать очень сложно.
Продолжительность: 00:38:50
Перевод: Двуголосый закадровый, профессиональный
Видеокодек: Xvid
Битрейт видео: ~1498 Кбит/сек
Размер кадра: 704x464
Качество видео: SATRip
Аудиокодек: MP3, 2 ch
Битрейт аудио: 128 Кбит/с

MI:

Общее
Полное имя : D:\Кальмар-убийца.2004.XviD.SATRip.avi
Формат : AVI
Формат/Информация : Audio Video Interleave
Размер файла : 455 Мбайт
Продолжительность : 38 м.
Общий поток : 1636 Кбит/сек
Библиотека кодирования : VirtualDub build 35390/release
Видео
Идентификатор : 0
Формат : MPEG-4 Visual
Профиль формата : Advanced [email protected]
Параметр BVOP формата : 2
Параметр QPel формата : Нет
Параметр GMC формата : Без точки перехода
Параметр матрицы формата : Default (H.263)
Режим смешивания : Сжатый битовый поток
Идентификатор кодека : XVID
Идентификатор кодека/Подсказка : XviD
Продолжительность : 38 м.
Битрейт : 1498 Кбит/сек
Ширина : 704 пикселя
Высота : 464 пикселя
Соотношение сторон : 3:2
Частота кадров : 25,000 кадров/сек
Цветовое пространство : YUV
Субдискретизация насыщенности : 4:2:0
Битовая глубина : 8 бит
Тип развёртки : Прогрессивная
Метод сжатия : С потерями
Бит/(Пиксели*Кадры) : 0.183
Размер потока : 416 Мбайт (92%)
Библиотека кодирования : XviD 1.2.1 (UTC 2008-12-04)
Аудио
Идентификатор : 1
Формат : MPEG Audio
Версия формата : Version 1
Профиль формата : Layer 3
Режим : Joint stereo
Расширение режима : MS Stereo
Идентификатор кодека : 55
Идентификатор кодека/Подсказка : MP3
Продолжительность : 38 м.
Вид битрейта : Постоянный
Битрейт : 128 Кбит/сек
Каналы : 2 канала
Частота : 48,0 КГц
Метод сжатия : С потерями
Размер потока : 35,6 Мбайт (8%)
Выравнивание : Разделение по промежуткам
Продолжительность промежутка : 40 мс. (1,00 видеокадр)
Время предзагрузки промежутка : 500 мс.
Скриншоты:
       
Время раздачи: 02.00-18.00 мск.До 5-ти скачавших
Other forum [Profile] [PM]
Display posts from previous:    
Reply to topic

The time now is: Today 12:25

All times are GMT + 3 Hours



You cannot post new topics in this forum
You cannot reply to topics in this forum
You cannot edit your posts in this forum
You cannot delete your posts in this forum
You cannot vote in polls in this forum
You cannot attach files in this forum
You cannot download files in this forum