Today is a free download without charge Download

Наука об оружии: Скорострельное оружие / Discovery World: Weaponology (2007) SATRip

Reply to topic
 
Author
Message

UndegraundMen ®

Longevity: 7 years 7 months

Posts: 25145

Торрент-статистика

Post 17-Apr-2013 00:00

[Quote]

Наука об оружии: Скорострельное оружие / Discovery World: Weaponology (2007) SATRip- Русское название: Наука об оружии: Скорострельное оружие
Оригинальное название: Discovery World: Weaponology
Режиссер / Телекомпания: Jim Greayer / Discovery
Год выпуска: 2007
Жанр: Документальный
Описание:
Наука об оружии раскрывает тайны разнообразных видов старинного и современного вооружения , а так же рассказывает об различных элитных подразделениях , которые это оружие используют . В пехоте большая скорострельность означала скорую смерть. Большая скорострельность заставляет противника делать то, что вы от него хотите: перестать стрелять в вас. В данном фильме исследуют историю развития военной техники, покажут как совершенствовались пулемёты, штурмовые винтовки и автоматы.
Продолжительность: 00:44:52
Перевод: Одноголосый закадровый, профессиональный
Видеокодек: XviD
Битрейт видео: ~1641 kb/s
Размер кадра: 640x400
Качество видео: SATRip
Аудиокодек: MP3, 1 channels
Битрейт аудио: 128.00 kb/s
Скриншоты:
         
Время раздачи: 24/7

Отчёт MediaInfo:

Общее
Полное имя : E:\____MY___\Скорострельное_оружие_ Discovery.avi
Формат : AVI
Формат/Информация : Audio Video Interleave
Размер файла : 571 Мбайт
Продолжительность : 44 м.
Общий поток : 1780 Кбит/сек
Программа кодирования : VirtualDubMod 1.5.10.2 (build 2542/release)
Библиотека кодирования : VirtualDubMod build 2542/release
Видео
Идентификатор : 0
Формат : MPEG-4 Visual
Профиль формата : Advanced [email protected]
Параметр BVOP формата : 2
Параметр QPel формата : Нет
Параметр GMC формата : Без точки перехода
Параметр матрицы формата : Default (MPEG)
Режим смешивания : Сжатый битовый поток
Идентификатор кодека : XVID
Идентификатор кодека/Подсказка : XviD
Продолжительность : 44 м.
Битрейт : 1642 Кбит/сек
Ширина : 640 пикселей
Высота : 400 пикселей
Соотношение сторон : 1,600
Частота кадров : 25,000 кадров/сек
Цветовое пространство : YUV
Субдискретизация насыщенности : 4:2:0
Битовая глубина : 8 бит
Тип развёртки : Прогрессивная
Метод сжатия : С потерями
Бит/(Пиксели*Кадры) : 0.257
Размер потока : 527 Мбайт (92%)
Библиотека кодирования : XviD 1.2.1 (UTC 2008-12-04)
Аудио
Идентификатор : 1
Формат : MPEG Audio
Версия формата : Version 1
Профиль формата : Layer 3
Идентификатор кодека : 55
Идентификатор кодека/Подсказка : MP3
Продолжительность : 44 м.
Вид битрейта : Постоянный
Битрейт : 128 Кбит/сек
Каналы : 1 канал
Частота : 48,0 КГц
Метод сжатия : С потерями
Размер потока : 41,1 Мбайт (7%)
Выравнивание : Соединение по промежуткам
Продолжительность промежутка : 40 мс. (1,00 видеокадр)
Время предзагрузки промежутка : 504 мс.
Other forum [Profile] [PM]
Display posts from previous:    
Reply to topic

The time now is: Today 07:19

All times are GMT + 3 Hours



You cannot post new topics in this forum
You cannot reply to topics in this forum
You cannot edit your posts in this forum
You cannot delete your posts in this forum
You cannot vote in polls in this forum
You cannot attach files in this forum
You cannot download files in this forum