Today is a free download without charge Download

Seether - Pass Slowly [2013, Post-Grunge, HDCamRip]

Reply to topic
 
Author
Message

Omen ®

Longevity: 8 years 4 months

Posts: 181087

Торрент-статистика

Post 16-Apr-2013 22:02

[Quote]

Seether - Pass Slowly
Жанр: Post-Grunge
Продолжительность: 3mn 26s 540ms
Год выпуска: 2013
Описание: 2011 - Holding Onto Strings Better Left to Fray (Deluxe Edition)
Качество: HDCamRip
Контейнер: MKV
Видео кодек: H.264
Аудио кодек: FLAC
Видео: AVC at 2 079 Kbps 1280 x 632 (2.025) at 23.976 fps
Аудио: FLAC at 956 Kbps 2 channels, 44.1 KHz

Отчёт MediaInfo / BDInfo

Format : MatroskaFormat version : Version 2File size : 74.8 MiBDuration : 3mn 26sOverall bit rate mode : VariableOverall bit rate : 3 037 KbpsEncoded date : UTC 2013-04-16 17:12:22Writing application : mkvmerge v4.4.0 ('Die Wiederkehr') сборка от Oct 31 2010 21:52:48Writing library : libebml v1.0.0 + libmatroska v1.0.0
VideoID : 1Format : AVCFormat/Info : Advanced Video CodecFormat profile : [email protected] settings, CABAC : YesFormat settings, ReFrames : 5 framesCodec ID : avc1Codec ID/Info : Advanced Video CodingDuration : 3mn 26sBit rate : 2 079 KbpsMaximum bit rate : 3 911 KbpsWidth : 1 280 pixelsHeight : 632 pixelsDisplay aspect ratio : 2.025Frame rate mode : ConstantFrame rate : 23.976 fpsColor space : YUVChroma subsampling : 4:2:0Bit depth : 8 bitsScan type : ProgressiveBits/(Pixel*Frame) : 0.107Stream size : 51.2 MiB (94%)Writing library : x264 core 119 r2106 07efeb4Encoding settings : cabac=1 / ref=5 / deblock=1:-1:-1 / analyse=0x3:0x133 / me=umh / subme=7 / psy=1 / psy_rd=1.00:0.00 / mixed_ref=1 / me_range=16 / chroma_me=1 / trellis=2 / 8x8dct=1 / cqm=0 / deadzone=21,11 / fast_pskip=0 / chroma_qp_offset=-2 / threads=3 / sliced_threads=0 / nr=0 / decimate=1 / interlaced=0 / bluray_compat=0 / constrained_intra=0 / bframes=3 / b_pyramid=2 / b_adapt=2 / b_bias=0 / direct=3 / weightb=1 / open_gop=0 / weightp=2 / keyint=250 / keyint_min=23 / scenecut=40 / intra_refresh=0 / rc_lookahead=50 / rc=crf / mbtree=1 / crf=18.0 / qcomp=0.60 / qpmin=0 / qpmax=69 / qpstep=4 / ip_ratio=1.40 / aq=1:1.00Encoded date : UTC 2013-04-16 16:50:20Tagged date : UTC 2013-04-16 16:50:21
AudioFormat : FLACFormat/Info : Free Lossless Audio CodecDuration : 3mn 26sBit rate mode : VariableBit rate : 956 KbpsChannel(s) : 2 channelsSampling rate : 44.1 KHzBit depth : 16 bitsStream size : 23.5 MiB (100%)Writing library : libFLAC 20080709 (UTC 2008-07-09)

Скриншоты

Other forum [Profile] [PM]
Display posts from previous:    
Reply to topic

The time now is: Today 09:13

All times are GMT + 3 Hours



You cannot post new topics in this forum
You cannot reply to topics in this forum
You cannot edit your posts in this forum
You cannot delete your posts in this forum
You cannot vote in polls in this forum
You cannot attach files in this forum
You cannot download files in this forum