Today is a free download without charge Download

Пешка / Pawn ( Дэвид А. Армстронг ) (2013, триллер, криминал ) BDRip [720p] [VO]

Reply to topic
 
Author
Message

Витек1 ®

Gender:

Longevity: 8 years 3 months

Posts: 451

Location: Житомир

Торрент-статистика

Post 16-Apr-2013 20:55

[Quote]

Пешка / Pawn - Русское название: Пешка
Оригинальное название: Pawn
Год выпуска: 2013
Производство: США / 42 Films
Жанр: триллер, криминал
Перевод: Одноголосый закадровый, любительский
Озвучка / Автор перевода: den904 / Janetta
Язык субтитров: Английский
Субтитры: Вшитые отключаемые
Режиссер: Дэвид А. Армстронг
Актеры: Джон Ли Броди, Никки Рид, Дебора Твисс, Рэй Лиотта, Форест Уитакер, Шон Фэрис, Джессика Зор, Пол Джуд Летерски, Стивен Лэнг, Мартон Чокаш
Описание фильма:
Это история о экс-заключенном, который запутывается в хитрой игре между федералами, местной полицией и бандитами.

Дата мировой премьеры: 23 апреля 2013
Продолжительность: 01:28:11
Качество видео: BDRip [720p]
Видеокодек: MPEG-4 AVC/H.264
Битрейт видео: ~4676 Kb/s
Размер кадра: 1280x532
Аудио 1: AC3, 6 ch, 448 Кбит/с (Одноголосый закадровый, Русский)
Аудио 2: AC3, 6 ch, 640 Кбит/с (Английский, Оригинал)

MediaInfo:

Общее
Уникальный идентификатор : 196454668659680866767559898942422133832 (0x93CBCAFC0F70E860993AE3F4A30C2C48)
Полное имя : F:\Фильмы\Пешка\Pawn.L1.2013.BDRip.720p.mkv
Формат : Matroska
Версия формата : Version 2
Размер файла : 3,63 Гбайт
Продолжительность : 1 ч. 28 м.
Общий поток : 5881 Кбит/сек
Дата кодирования : UTC 2013-04-15 16:25:43
Программа кодирования : mkvmerge v2.9.8 ('C'est le bon') built on Nov 20 2009 13:01:15
Библиотека кодирования : libebml v0.7.9 + libmatroska v0.8.1
Видео
Идентификатор : 1
Формат : AVC
Формат/Информация : Advanced Video Codec
Профиль формата : [url=mailto:[email protected]][email protected][/url]
Параметр CABAC формата : Да
Параметр ReFrames формата : 11 кадров
Идентификатор кодека : V_MPEG4/ISO/AVC
Продолжительность : 1 ч. 28 м.
Битрейт : 4676 Кбит/сек
Ширина : 1280 пикселей
Высота : 532 пикселя
Соотношение сторон : 2,40:1
Режим частоты кадров : Постоянный
Частота кадров : 23,976 кадра/сек
Цветовое пространство : YUV
Субдискретизация насыщенности : 4:2:0
Битовая глубина : 8 бит
Тип развёртки : Прогрессивная
Бит/(Пиксели*Кадры) : 0.286
Размер потока : 2,89 Гбайт (80%)
Заголовок : DON by LoRdScAb
Библиотека кодирования : x264 core 130 r2273 b3065e6
Настройки программы : cabac=1 / ref=11 / deblock=1:-3:-3 / analyse=0x3:0x133 / me=umh / subme=10 / psy=1 / psy_rd=1.05:0.00 / mixed_ref=1 / me_range=32 / chroma_me=1 / trellis=2 / 8x8dct=1 / cqm=0 / deadzone=21,11 / fast_pskip=0 / chroma_qp_offset=-2 / threads=12 / lookahead_threads=2 / sliced_threads=0 / nr=0 / decimate=0 / interlaced=0 / bluray_compat=0 / constrained_intra=0 / bframes=9 / b_pyramid=2 / b_adapt=2 / b_bias=0 / direct=3 / weightb=1 / open_gop=0 / weightp=2 / keyint=240 / keyint_min=23 / scenecut=40 / intra_refresh=0 / rc_lookahead=60 / rc=crf / mbtree=0 / crf=16.5 / qcomp=0.75 / qpmin=0 / qpmax=69 / qpstep=4 / vbv_maxrate=50000 / vbv_bufsize=62500 / crf_max=0.0 / nal_hrd=none / ip_ratio=1.20 / pb_ratio=1.10 / aq=1:0.70
Язык : English
Default : Нет
Forced : Нет
Аудио #1
Идентификатор : 2
Формат : AC-3
Формат/Информация : Audio Coding 3
Расширение режима : CM (complete main)
Параметр Endianness формата : Big
Идентификатор кодека : A_AC3
Продолжительность : 1 ч. 28 м.
Вид битрейта : Постоянный
Битрейт : 448 Кбит/сек
Каналы : 6 каналов
Расположение каналов : Front: L C R, Side: L R, LFE
Частота : 48,0 КГц
Битовая глубина : 16 бит
Метод сжатия : С потерями
Размер потока : 283 Мбайт (8%)
Заголовок : 03nazar03
Язык : Russian
Default : Да
Forced : Да
Аудио #2
Идентификатор : 3
Формат : AC-3
Формат/Информация : Audio Coding 3
Расширение режима : CM (complete main)
Параметр Endianness формата : Big
Идентификатор кодека : A_AC3
Продолжительность : 1 ч. 28 м.
Вид битрейта : Постоянный
Битрейт : 640 Кбит/сек
Каналы : 6 каналов
Расположение каналов : Front: L C R, Side: L R, LFE
Частота : 48,0 КГц
Битовая глубина : 16 бит
Метод сжатия : С потерями
Размер потока : 405 Мбайт (11%)
Заголовок : AC3 Embedded
Язык : English
Default : Нет
Forced : Нет
Текст
Идентификатор : 4
Формат : UTF-8
Идентификатор кодека : S_TEXT/UTF8
Идентификатор кодека/Информация : UTF-8 Plain Text
Заголовок : SDH
Язык : English
Default : Нет
Forced : Нет
Меню
00:00:00.000 : :00:00:00.000
00:04:50.165 : :00:04:50.165
00:15:12.995 : :00:15:12.995
00:23:11.223 : :00:23:11.223
00:31:56.331 : :00:31:56.331
00:38:36.940 : :00:38:36.940
00:47:33.809 : :00:47:33.809
00:58:41.476 : :00:58:41.476
01:06:21.644 : :01:06:21.644
01:10:47.952 : :01:10:47.952
01:14:36.514 : :01:14:36.514
01:21:46.944 : :01:21:46.944
Скриншоты:
       

_________________
Скачал сам, дай скачать другому!!!Не забудь сказать -
Other forum [Profile] [PM]

Dracula

Longevity: 7 years 5 months

Posts: 11215

Торрент-статистика

Post 02-Jan-2014 15:52 (after 8 months 15 days)

Топик был перенесен из форума Новинки (DVD, HD Video) в форум Зарубежное кино (HD Video)


kogesan
 
Display posts from previous:    
Reply to topic

The time now is: Today 09:40

All times are GMT + 3 Hours



You cannot post new topics in this forum
You cannot reply to topics in this forum
You cannot edit your posts in this forum
You cannot delete your posts in this forum
You cannot vote in polls in this forum
You cannot attach files in this forum
You cannot download files in this forum