Today is a free download without charge Download

Яблочное зернышко / Appurushido (Синдзи Арамаки) [2004, аниме, мультфильм, фантастика, боевик, BDRip 1080p]

Reply to topic
 
Author
Message

Delia ®

Gender:

Longevity: 11 years

Posts: 1821

Торрент-статистика

Post 16-Apr-2013 08:45

[Quote]

-Яблочное зернышко
Appurushido«Humanity's last chance for survival.»--
Год выпуска: 2004
Страна: Япония
Жанр: аниме, мультфильм, фантастика, боевик
Продолжительность: 01:45:50
Перевод: Профессиональный (дублированный)
Субтитры: Russian (UTF-8), Russian (UTF-8), English (UTF-8)
Режиссер: Синдзи Арамаки
Сценарий: Масамунэ Сиро, Харука Ханда, Цутому Камисиро
Продюсер: Харуйо Канесаку, Ютака Масеба, Фумихико Сори, ...
Композитор: Пол Оукенфолд, Т. Раумшмир, Рюити Сакамото
Художник: Синдзи Арамаки-В ролях: Аи Кобаяси / Ai Kobayashi (Deunan, озвучка), Дзюрота Косуги / Jurota Kosugi (Briareos, озвучка), Юки Мацуока / Yuki Matsuoka (Hitomi, озвучка), Асуми Мива / Asumi Miwa (Deunan, (motion actor)), Акимото Тсубаса / Akimoto Tsubasa (Deunan, (motion actor)), Джек Обри / Jack Aubree (озвучка, английская версия), Крис Эйрс / Chris Ayres (в титрах: Christopher Ayres) (Elder, озвучка, английская версия), Уильям Бассетт / William Bassett (в титрах: Frederick Bloggs) (озвучка, английская версия), Дебора Сейл / Deborah Sale Butler (озвучка, английская версия), Шелли Карлин-Блэк / Shelley Carlene-Black (Nike, озвучка, английская версия)
-Описание: 2131 год. Неядерная война, почти уничтожившая человечество, закончена. Победивших нет. Солдат спецназа Дюнан Нат выжила и при неясных обстоятельствах попадает в город Олимп, ставший центром Земли. Ее бывший возлюбленный Бриареос, приведший Дюнан в Олимп, потерял тело в сражениях за Северную Африку и стал киборгом.Половина населения Олимпа — клоны специально отобранных человеческих особей, кибернетически модифицированных и улучшенных, — биороиды. Их природа такова, что исключает социальные конфликты и нестабильность. Город и его население контролируется правящей верхушкой и Гейа — кибернетическим мозгом. Кто такие биороиды, неужели Олимп — та самая утопия, о которой мечтало раздираемое конфликтами человечество? Или же именно в Гейа нужно искать причины коллапса человечества?
Сборы в США: $129 135
Сборы в России: $1 100
Зрители: Франция 56.3 тыс. , Польша 5.5 тыс. , Великобритания 1.5 тыс.
Премьера (мир): 5 марта 2004, ...
Релиз на DVD: 10 декабря 2009, «Новый Диск», ...
-
Рейтинг MPAA: Лицам до 17 лет обязательно присутствие взрослого
Рейтинг ВКИП: для детей старше 16 лет
Релиз группы: -
Качество: BDRip
Формат: MKV
Видео кодек: H.264 (AVC)
Аудио кодеk: AC3
Видео: 1920x1080 (16:9), 24.000 fps, AVC, 10.3 Mbps
Аудио: AC3, 448 Kbps, 48.0 KHz, 6 ch


--

МедиаИнфо

Код:
General
Unique ID                                : 187010830745093626558224166357619780719 (0x8CB0F9D3A4B1207D98E14FB0B8BD2C6F)
Complete name                            : Appleseed(2004)1080p.BDRip.F-HD.mkv
Format                                   : Matroska
Format version                           : Version 4 / Version 2
File size                                : 7.95 GiB
Duration                                 : 1h 45mn
Overall bit rate                         : 10.7 Mbps
Encoded date                             : UTC 2013-04-16 04:47:14
Writing application                      : mkvmerge v6.0.0 ('Coming Up For Air') built on Jan 20 2013 09:52:00
Writing library                          : libebml v1.3.0 + libmatroska v1.4.0
Video
ID                                       : 1
Format                                   : AVC
Format/Info                              : Advanced Video Codec
Format profile                           : [email protected]
Format settings, CABAC                   : Yes
Format settings, ReFrames                : 4 frames
Codec ID                                 : V_MPEG4/ISO/AVC
Duration                                 : 1h 45mn
Bit rate                                 : 10.3 Mbps
Width                                    : 1 920 pixels
Height                                   : 1 080 pixels
Display aspect ratio                     : 16:9
Frame rate mode                          : Constant
Frame rate                               : 24.000 fps
Color space                              : YUV
Chroma subsampling                       : 4:2:0
Bit depth                                : 8 bits
Scan type                                : Progressive
Bits/(Pixel*Frame)                       : 0.207
Stream size                              : 7.46 GiB (94%)
Writing library                          : x264 core 129 r2230 1cffe9f
Encoding settings                        : cabac=1 / ref=4 / deblock=1:-2:-2 / analyse=0x3:0x113 / me=umh / subme=11 / psy=1 / psy_rd=0.90:0.15 / mixed_ref=1 / me_range=48 / chroma_me=1 / trellis=2 / 8x8dct=1 / cqm=0 / deadzone=21,11 / fast_pskip=0 / chroma_qp_offset=-3 / threads=6 / lookahead_threads=1 / sliced_threads=0 / nr=0 / decimate=1 / interlaced=0 / bluray_compat=0 / constrained_intra=0 / bframes=8 / b_pyramid=2 / b_adapt=2 / b_bias=0 / direct=3 / weightb=1 / open_gop=0 / weightp=2 / keyint=240 / keyint_min=24 / scenecut=40 / intra_refresh=0 / rc_lookahead=40 / rc=2pass / mbtree=0 / bitrate=10310 / ratetol=1.0 / qcomp=0.70 / qpmin=0 / qpmax=69 / qpstep=4 / cplxblur=20.0 / qblur=0.5 / vbv_maxrate=50000 / vbv_bufsize=65000 / nal_hrd=none / ip_ratio=1.40 / pb_ratio=1.30 / aq=1:0.60
Language                                 : English
Default                                  : Yes
Forced                                   : No
Color primaries                          : BT.709
Transfer characteristics                 : BT.709
Matrix coefficients                      : BT.709
Audio
ID                                       : 2
Format                                   : AC-3
Format/Info                              : Audio Coding 3
Mode extension                           : CM (complete main)
Format settings, Endianness              : Big
Codec ID                                 : A_AC3
Duration                                 : 1h 45mn
Bit rate mode                            : Constant
Bit rate                                 : 448 Kbps
Channel(s)                               : 6 channels
Channel positions                        : Front: L C R, Side: L R, LFE
Sampling rate                            : 48.0 KHz
Bit depth                                : 16 bits
Compression mode                         : Lossy
Stream size                              : 339 MiB (4%)
Title                                    : дубляж
Language                                 : Russian
Default                                  : Yes
Forced                                   : No
Text #1
ID                                       : 3
Format                                   : UTF-8
Codec ID                                 : S_TEXT/UTF8
Codec ID/Info                            : UTF-8 Plain Text
Title                                    : R5 (RUSCICO)
Language                                 : Russian
Default                                  : No
Forced                                   : No
Text #2
ID                                       : 4
Format                                   : UTF-8
Codec ID                                 : S_TEXT/UTF8
Codec ID/Info                            : UTF-8 Plain Text
Title                                    : (авторские - Fury, Ethereal, GoldenEye, Storm)
Language                                 : Russian
Default                                  : No
Forced                                   : No
Text #3
ID                                       : 5
Format                                   : UTF-8
Codec ID                                 : S_TEXT/UTF8
Codec ID/Info                            : UTF-8 Plain Text
Language                                 : English
Default                                  : No
Forced                                   : No
Menu
00:00:00.000                             : en:00:00:00.000
00:11:08.040                             : en:00:11:08.040
00:20:49.041                             : en:00:20:49.041
00:29:53.041                             : en:00:29:53.041
00:34:59.041                             : en:00:34:59.041
00:44:12.041                             : en:00:44:12.041
00:54:55.041                             : en:00:54:55.041
01:03:59.041                             : en:01:03:59.041
01:13:26.041                             : en:01:13:26.041
01:27:25.041                             : en:01:27:25.041
01:39:10.041                             : en:01:39:10.041
01:41:18.041                             : en:01:41:18.041
01:45:18.041                             : en:01:45:18.041

Скриншоты

     
     
     

_________________
Человек – это канат, натянутый между животным и сверхчеловеком, – канат над пропастью.
В человеке ценно то, что он мост, а не цель. Фридрих Ницше
Other forum [Profile] [PM]
Display posts from previous:    
Reply to topic

The time now is: Today 10:55

All times are GMT + 3 Hours



You cannot post new topics in this forum
You cannot reply to topics in this forum
You cannot edit your posts in this forum
You cannot delete your posts in this forum
You cannot vote in polls in this forum
You cannot attach files in this forum
You cannot download files in this forum