Today is a free download without charge Download

Хуторянин / Серии: 1-4 из 12 (Виктор Мережко) [2013, Мелодрама, драма, SATRip]

Reply to topic
 
Author
Message

Omen ®

Longevity: 9 years

Posts: 181086

Торрент-статистика

Post 16-Apr-2013 01:49

[Quote]

Хуторянин
Год выпуска: 2013
Производство: Россия, ВИМ СТУДИО
Жанр: Мелодрама, драма
Продолжительность: 4х ~ 00:45:00
Субтитры: нет
Режиссёр: Виктор Мережко
В ролях: Вера Баханкова, Андрей Чернышов, Олег Басилашвили, Игорь Скляр, Светлана Смирнова, Владимир Кошевой, Тата Хачатрян, Саша Дробитько, Анастасия Венкова, Михаил Сидаш, Андрей Павловец, Игорь Фурманюк, Николай Мартон, Варвара Щербакова, Анастасия Рубова
Описание: Как быть, если однажды из-за засилья бандитов и коррумпированных чиновников честно жить и трудиться на собственной земле становится невозможно? Поддаться давлению обстоятельств и навсегда уехать, продав за бесценок хозяйство и землю? Или, несмотря на смертельную опасность и страх за близких людей, бросить преступной системе вызов? "Хуторянин" - социальная драма об отношениях человека и власти. Главный герой Сергей Краснов (Андрей Чернышов) - бывший полковник российской армии и владелец собственного процветающего хутора на юге России. Год назад Краснов столкнулся с произволом чиновников и земельной мафии, но отказался носить взятки и идти на компромиссы. Чтобы сломить несговорчивого офицера, бандиты убили его жену. Краснов остался один с малолетним сыном Ваней и дочкой Ксенией, но все равно не сдался...
Все раздачи сериала
Сэмпл
Качество: SATRip
Формат: AVI
Видео кодек: XviD
Аудио кодек: MP3
Видео: 720x400 (1.80:1), 25 fps, XviD build 50 ~1551 kbps avg, 0.22 bit/pixel
Аудио: 48 kHz, MPEG Layer 3, 2 ch, ~192.00 kbps avg
Релиз от:

MI

General
Complete name : V:\ftp4\Videos\Khutoryanin.2013.SATRip.Files-x\Khutoryanin.03.seriya.2013.SATRip.Files-x.avi
Format : AVI
Format/Info : Audio Video Interleave
File size : 550 MiB
Duration : 43mn 47s
Overall bit rate : 1 755 Kbps
Writing application : VirtualDubMod 1.5.10.3 | www.virtualdub-fr.org || (build 2550/release)
Writing library : VirtualDubMod build 2550/release
Video
ID : 0
Format : MPEG-4 Visual
Format profile : Advanced [email protected]
Format settings, BVOP : 1
Format settings, QPel : No
Format settings, GMC : No warppoints
Format settings, Matrix : Default (H.263)
Codec ID : XVID
Codec ID/Hint : XviD
Duration : 43mn 47s
Bit rate : 1 554 Kbps
Width : 720 pixels
Height : 400 pixels
Display aspect ratio : 16:9
Frame rate : 25.000 fps
Color space : YUV
Chroma subsampling : 4:2:0
Bit depth : 8 bits
Scan type : Progressive
Compression mode : Lossy
Bits/(Pixel*Frame) : 0.216
Stream size : 487 MiB (89%)
Writing library : XviD 1.2.1 (UTC 2008-12-04)
Audio
ID : 1
Format : MPEG Audio
Format version : Version 1
Format profile : Layer 3
Codec ID : 55
Codec ID/Hint : MP3
Duration : 43mn 47s
Bit rate mode : Constant
Bit rate : 192 Kbps
Channel(s) : 2 channels
Sampling rate : 48.0 KHz
Compression mode : Lossy
Stream size : 60.1 MiB (11%)
Alignment : Aligned on interleaves
Interleave, duration : 40 ms (1.00 video frame)
Interleave, preload duration : 504 ms
Writing library : LAME3.98r
Encoding settings : -m s -V 4 -q 2 -lowpass 18.6 -b 192

Скриншоты

Раздача ведется путем добавления новых серий

Внимание! Раздача ведётся путём добавления новых серий; при каждом добавлении создётся новый торрент. Чтобы начать докачку новой серии, пользователям необходимо сделать следующее:
(1) остановить скачивание,
(2) удалить старый торрент у себя из клиента (старые серии удалять не надо),
(3) скачать новый торрент и запустить его у себя в клиенте вместо старого, при этом указать клиенту путь в старую папку куда и должно происходить скачивание новых серий.
Ваш клиент при этом должен произвести хеширование (проверку) старой папки (если не производит сам - помогите ему сделать это), и будет докачивать только те серии которых у вас ещё нет. Старые серии при этом не удаляются, а продолжают раздаваться!
Eсли вы уже удалили старые серии, то предотвратить повторную закачку старых серий можно, отжав галочку в соответствующих местах при запуске нового торрента.
Other forum [Profile] [PM]
Display posts from previous:    
Reply to topic

The time now is: Today 18:13

All times are GMT + 3 Hours



You cannot post new topics in this forum
You cannot reply to topics in this forum
You cannot edit your posts in this forum
You cannot delete your posts in this forum
You cannot vote in polls in this forum
You cannot attach files in this forum
You cannot download files in this forum