Today is a free download without charge Download

Сезон: 2 из 20 / Сезон: 2 / Серии: Серии: 13-я из 20 (Дмитрий Дьяченко) [2013, комедия, SATRip]

Reply to topic
 
Author
Message

Omen ®

Longevity: 9 years 1 month

Posts: 181086

Торрент-статистика

Post 16-Apr-2013 01:49

[Quote]

Кухня / Сезон: 2 Серии: 13-я из 20
Год выпуска: 2013
Производство: Россия, YBW Group по заказу СТ
Жанр: комедия
Продолжительность: 00:25:00
Режиссёр: Дмитрий Дьяченко
В ролях: Никита Тарасов, Дмитрий Назаров, Марк Богатырев, Дмитрий Нагиев, Юлия Такшина, Елена Подкаминская, Марина Могилевская, Сергей Лавыгин, Виктор Хориняк, Сергей Епишев, Ольга Кузьмина, Екатерина Кузнецова (IV), Михаил Тарабукин, Виктория Лукина, Елена Чернявская, Виталий Щанников, Сергей Беляев, Роман Индык, Евгения Храповицкая, Серафима Низовская
Описание: Главный герой Максим Лавров — выпускник Воронежского кулинарного колледжа — одержим мечтой: стать знаменитым шеф-поваром.
Для этого он отправляется в Москву, чтобы устроиться в известнейший и популярный ресторан «Гюго», хозяином которого является «звезда» шоу-бизнеса.
Шеф-повар ресторана «Гюго» — знаменитый на всю Москву Виктор Баринов. Властный, харизматичный, самодур, пьяница и игрок, но повар от бога.
Арт-директор ресторана — Виктория Гончарова. Ей 30, она хитра, образованна, красива. Вся её жизнь — карьера, в ней нет места личной жизни.
Сотрудники ресторана работают в условиях вечного конфликта Шеф-повара и Арт-директора. Один ставит во главу угла прекрасно приготовленную на его кухне еду. Другая — сервис и атмосферу зала ресторана, которую создает она.
Именно в это заведение и попадает Максим. Парень знает себе цену и всеми способами пытается завоевать доверие шеф-повара и остаться на кухне. Однако отсутствие опыта и чрезмерное желание самоутвердиться ввергают Максима в череду коллизий, которую ему придётся преодолеть, чтобы стать частью этого мира.
Качество: SATRip
Формат: AVI
Видео кодек: divx
Аудио кодек: MP3
Видео: DivX, 720x400, 25 fps, 1650 kbit/s
Аудио: MPEG Layer 3, 44100 Hz, 128 kbit/s, stereo

MI

H:\Ô³ëüìè\ãàë³\Kuhnja.2.13.2013.SATRip.RiperAM.avi
General
Complete name : H:\Ô³ëüìè\ãàë³\Kuhnja.2.13.2013.SATRip.RiperAM.avi
Format : AVI
Format/Info : Audio Video Interleave
File size : 267 MiB
Duration : 22mn 48s
Overall bit rate : 1 638 Kbps
Writing application : VirtualDubMod 1.5.10.3 | www.virtualdub-fr.org || (build 2550/release)
Writing library : VirtualDubMod build 2550/release
Video #0
ID : 0
Format : MPEG-4 Visual
Format profile : Advanced [email protected]
Format settings, BVOP : 2
Format settings, QPel : No
Format settings, GMC : No warppoints
Format settings, Matrix : Default (MPEG)
Codec ID : XVID
Codec ID/Hint : XviD
Duration : 22mn 48s
Bit rate : 1 500 Kbps
Width : 720 pixels
Height : 400 pixels
Display aspect ratio : 16:9
Frame rate : 25.000 fps
Color space : YUV
Chroma subsampling : 4:2:0
Bit depth : 8 bits
Scan type : Progressive
Compression mode : Lossy
Bits/(Pixel*Frame) : 0.208
Stream size : 245 MiB (92%)
Writing library : XviD 65
Audio #1
ID : 1
Format : MPEG Audio
Format version : Version 1
Format profile : Layer 3
Mode : Joint stereo
Codec ID : 55
Codec ID/Hint : MP3
Duration : 22mn 48s
Bit rate mode : Constant
Bit rate : 128 Kbps
Channel(s) : 2 channels
Sampling rate : 48.0 KHz
Compression mode : Lossy
Stream size : 20.9 MiB (8%)
Alignment : Aligned on interleaves
Interleave, duration : 40 ms (1.00 video frame)
Interleave, preload duration : 504 ms

Скриншоты

Other forum [Profile] [PM]
Similar theme
Forum Topic Author Torrent Replies Last Post
./templates/default/images/folder_dl.gif Отечественные cериалы Тайный город / Сезон: 1 / Серии: 1-8 из 8 (Александр Мохов) [2014 г., фэнтези,, DVDRip] Omen
1 | 0

0 | 1122

6

2014-09-30 11:00
Omen Latest
./templates/default/images/folder_dl.gif Зарубежные сериалы Убийцы Ву / Wu Assassins (2019) WEB-DLRip (сезон 1, серии 1-10 из 10) VSI Moscow Clavik
1 | 0

0 | 772

1

2019-08-17 22:54
Clavik Latest
./templates/default/images/folder_dl.gif Зарубежные сериалы Декстер: Новая кровь / Dexter: New Blood / Сезон: 1 / Серии: 1-3 из 10 (Маркос Сига) [2021, США, драма, WEB-DL 720p] MVO (Novamedia, LostFilm, Jaskier, TVShows) + Original + Sub (Rus, Eng) }{@R0N
0 | 1

1 | 255

0

2021-11-21 15:19
RUGUI Latest
Display posts from previous:    
Reply to topic

The time now is: Today 05:12

All times are GMT + 3 Hours



You cannot post new topics in this forum
You cannot reply to topics in this forum
You cannot edit your posts in this forum
You cannot delete your posts in this forum
You cannot vote in polls in this forum
You cannot attach files in this forum
You cannot download files in this forum