Today is a free download without charge Download

Операция "Кукловод" / Серии: 1-2 из 32 ( Карен Захаров) [2013, Детектив, DVB]

Reply to topic
 
Author
Message

Omen ®

Longevity: 9 years 1 month

Posts: 181086

Торрент-статистика

Post 16-Apr-2013 01:49

[Quote]

Операция "Кукловод"
Год выпуска: 2013
Производство: компания "Пирамида"
Жанр: Детектив
Продолжительность: ~0:43:00 серия
Субтитры: Украинские (вшитые)
Режиссёр: Карен Захаров
В ролях: Анастасия Панина, Владимир Яглыч, Денис Варенов, Евгения Чиркова, Андрей Москвичёв, Ирина Баринова, Александр Никольский (II), Андрей Муравьёв, Татьяна Косач-Брындина, Александр Сергеев (IV), Роман Гредин, Екатерина Куликова, Витас Эйзенах, Максим Башкин, Иван Гар, Алла Малкова
Описание: Герой сериала – Иван Королёв, майор оперативной службы ФСБ, при проведении операции по захвату оружейного барона попадает с группой в засаду. Получив тяжелое ранение, Королёв "уходит" на более спокойную работу – в спецотдел, занимающийся в основном аналитическими разработками. Так ему сказало начальство. Но на самом деле спокойной жизни не будет. Королёв с новыми коллегами оказывается в самой гуще событий, вызванных многоходовой комбинацией давнего врага России Перецкого.
Перецкий, заработавший баснословные капиталы на родине, но вынужденный бежать за рубеж, не оставляет надежд поквитаться и со страной, и со своими недругами. И среди личных обидчиков первым номером числится Иван Королёв. Ведь именно он сорвал нелегальную сделку по продаже большой партии оружия террористам.
Расследуя дело за делом, Королёв доберется до Перецкого, преступный замысел которого может нанести серьёзный ущерб России и её населению. Зрителя ждут интригующие расследования, детективный сюжет и опасные погони.

Качество: DVB
Формат: MPEG
Видео кодек: MPEG2
Аудио кодек: MPEG1
Видео: MPEG2 Video 768х576 @ 720x576 (4:3) 25.00fps ~4462 Kbps (0.32 bit/pixel)
Аудио: MPEG Audio 48000Hz 1 channels 192 Кбит/сек
Сторонней рекламы нет!

MediaInfo

ОбщееПолное имя : E:\Downloads\55\Операция Кукловод DVB\Операция Кукловод 01_серия_DVB_by_Серый1779.mpgФормат : MPEG-PSРазмер файла : 1,54 ГбайтПродолжительность : 46 м.Общий поток : 4749 Кбит/сек
ВидеоИдентификатор : 224 (0xE0)Формат : MPEG VideoВерсия формата : Version 2Профиль формата : Main@MainПараметр BVOP формата : ДаПараметр матрицы формата : По умолчаниюПродолжительность : 46 м.Вид битрейта : ПеременныйБитрейт : 4462 Кбит/секНоминальный битрейт : 15,0 Мбит/секШирина : 720 пикс.Высота : 576 пикс.Соотношение сторон : 4:3Частота кадров : 25,000 кадр/секСтандарт вещания : PALЦветовое пространство : YUVПодвыборка цветности : 4:2:0Битовая глубина : 8 битТип развёртки : ЧересстрочнаяПорядок развёртки : Верхнее поле первоеМетод сжатия : С потерямиБит/(Пиксели*Кадры) : 0.430Размер потока : 1,45 Гбайт (94%)
АудиоИдентификатор : 192 (0xC0)Формат : MPEG AudioВерсия формата : Version 1Профиль формата : Layer 2Продолжительность : 46 м.Вид битрейта : ПостоянныйБитрейт : 192 Кбит/секКаналы : 1 каналЧастота : 48,0 КГцМетод сжатия : С потерямиРазмер потока : 63,7 Мбайт (4%)

Внимание ! Раздача ведётся путём добавления новых серий

Внимание! Раздача ведётся путём добавления новых серий; при каждом добавлении создётся новый торрент. Чтобы начать докачку новой серии, пользователям необходимо сделать следующее:
(1) остановить скачивание,
(2) удалить старый торрент у себя из клиента (старые серии удалять не надо),
(3) скачать новый торрент и запустить его у себя в клиенте вместо старого, при этом указать клиенту путь в старую папку куда и должно происходить скачивание новых серий.
Ваш клиент при этом должен произвести хеширование (проверку) старой папки (если не производит сам - помогите ему сделать это), и будет докачивать только те серии которых у вас ещё нет. Старые серии при этом не удаляются, а продолжают раздаваться!
Eсли вы уже удалили старые серии, то предотвратить повторную закачку старых серий можно, отжав галочку в соответсвующих местах при запуске нового торрента. По возможности, желательно не удалять старые серии как можно дольше чтобы релизёр не столько продолжал раздавать старые серии, а смог сконцентрироваться на новых.
ВНИМАНИЕ! ТОРРЕНТ ПЕРЕЗАЛИТ! ДОБАВЛЕНА 2-ая СЕРИИ!

Скриншоты

Other forum [Profile] [PM]
Display posts from previous:    
Reply to topic

The time now is: Today 05:09

All times are GMT + 3 Hours



You cannot post new topics in this forum
You cannot reply to topics in this forum
You cannot edit your posts in this forum
You cannot delete your posts in this forum
You cannot vote in polls in this forum
You cannot attach files in this forum
You cannot download files in this forum