Today is a free download without charge Download

Имя Кармен / Prénom Carmen / Prenom Carmen (Жан-Люк Годар / Jean-Luc Godard) [1983, Франция, драма, комедия, криминал, WEB-DL 720p] DVO + Sub (Rus, Eng) + Original (Fre)

Reply to topic
 
Author
Message

Omen ®

Longevity: 8 years 5 months

Posts: 181087

Торрент-статистика

Post 16-Apr-2013 01:49

[Quote]

Имя Кармен / Prénom Carmen / Prenom Carmen
Страна: Франция
Жанр: драма, комедия, криминал
Год выпуска: 1983
Продолжительность: 01:24:39
Перевод: Профессиональный (двухголосый закадровый)
Cубтитры: русские (Ustinoff и leburs), английские, английские (hardsub)
Оригинальная аудиодорожка: французский
Режиссер: Жан-Люк Годар / Jean-Luc Godard
В ролях: Жан-Люк Годар, Марушка Детмерс, Жак Боннаффе, Мирием Руссель, Кристоф Одан, Пьер-Ален Шапюи, Бертран Льебер, Ален Бастьен-Тири, Ипполит Жирардо, Одиль Руар, Валери Древиль
Описание: Жан-Люк Годар с приступом жесточайшей депрессии лежит в больнице. Он не может написать ни строчки нового сценария. И вот, пожалуйста: приходит его племянница Кармен, которая сообщает, что вместе с друзьями намерена снимать кино.
И для этого ей нужна его квартира с окнами на море. Годар не может придумать новый фильм, а Кармен — может! Что же будет дальше? Дальше — все, как в кино: ограбление банка, безумный роман, полиция, погони…
О чем этот фильм? Вовсе не о Годаре и не о кино. Он о Кармен — о том, что женщина может сделать с мужчиной.
Доп. информация:


Сэмпл: http://sendfile.su/795677
Тип релиза: WEB-DL 720p
Контейнер: MKV
Видео: H.264, 962x720 (4:3), L3.1, 23.976 fps, 3840 kbps, 0.231 bit/pixel
Аудио 1: Russian: AC3, 48000Hz, 2ch, 192 kbps
Аудио 2: French: AC3, 48000Hz, 2ch, 192 kbps
Формат субтитров: softsub (SRT), hardsub (неотключаемые)

MediaInfo

General
Unique ID : 208587552930197797673333385668294295990 (0x9CEC805D285A18D2ABC649F896E741B6)
Complete name : D:\Имя Кармен (Prenom Carmen) (WEB-DL 720p).mkv
Format : Matroska
Format version : Version 4 / Version 2
File size : 2.55 GiB
Duration : 1h 24mn
Overall bit rate : 4 310 Kbps
Encoded date : UTC 2013-04-15 08:47:19
Writing application : mkvmerge v6.0.0 ('Coming Up For Air') built on Jan 20 2013 12:38:35
Writing library : libebml v1.3.0 + libmatroska v1.4.0
Video
ID : 1
Format : AVC
Format/Info : Advanced Video Codec
Format profile : [email protected]
Format settings, CABAC : No
Format settings, ReFrames : 2 frames
Codec ID : V_MPEG4/ISO/AVC
Duration : 1h 24mn
Bit rate : 3 840 Kbps
Width : 962 pixels
Height : 720 pixels
Display aspect ratio : 4:3
Frame rate mode : Constant
Frame rate : 23.976 fps
Color space : YUV
Chroma subsampling : 4:2:0
Bit depth : 8 bits
Scan type : Progressive
Bits/(Pixel*Frame) : 0.231
Stream size : 2.27 GiB (89%)
Language : French
Default : Yes
Forced : No
Color primaries : BT.709
Transfer characteristics : BT.709
Matrix coefficients : BT.709
Audio #1
ID : 2
Format : AC-3
Format/Info : Audio Coding 3
Mode extension : CM (complete main)
Format settings, Endianness : Big
Codec ID : A_AC3
Duration : 1h 24mn
Bit rate mode : Constant
Bit rate : 192 Kbps
Channel(s) : 2 channels
Channel positions : Front: L R
Sampling rate : 48.0 KHz
Bit depth : 16 bits
Compression mode : Lossy
Stream size : 116 MiB (4%)
Title : DVO
Language : Russian
Default : Yes
Forced : No
Audio #2
ID : 3
Format : AC-3
Format/Info : Audio Coding 3
Mode extension : CM (complete main)
Format settings, Endianness : Big
Codec ID : A_AC3
Duration : 1h 24mn
Bit rate mode : Constant
Bit rate : 192 Kbps
Channel(s) : 2 channels
Channel positions : Front: L R
Sampling rate : 48.0 KHz
Bit depth : 16 bits
Compression mode : Lossy
Stream size : 116 MiB (4%)
Title : Original
Language : French
Default : No
Forced : No
Text #1
ID : 4
Format : UTF-8
Codec ID : S_TEXT/UTF8
Codec ID/Info : UTF-8 Plain Text
Language : Russian
Default : No
Forced : No
Text #2
ID : 5
Format : UTF-8
Codec ID : S_TEXT/UTF8
Codec ID/Info : UTF-8 Plain Text
Language : English
Default : No
Forced : No

Скриншоты

Other forum [Profile] [PM]
Display posts from previous:    
Reply to topic

The time now is: Today 05:32

All times are GMT + 3 Hours



You cannot post new topics in this forum
You cannot reply to topics in this forum
You cannot edit your posts in this forum
You cannot delete your posts in this forum
You cannot vote in polls in this forum
You cannot attach files in this forum
You cannot download files in this forum