Today is a free download without charge Download

Под предварительным следствием / Garde a vue (Клод Миллер / Claude Miller) [1981, Франция, триллер, драма, криминал, BDRip 720p] MVO (Неоклассика) + Original French + sub

Reply to topic
 
Author
Message

Omen ®

Longevity: 8 years 5 months

Posts: 181087

Торрент-статистика

Post 16-Apr-2013 01:49

[Quote]

Под предварительным следствием / Garde a vue- Год выпуска: 1981
Страна: Франция
Жанр: триллер, драма, криминал
Продолжительность: 01:24:03
Перевод: Профессиональный (многоголосый, закадровый) Неоклассика
Оригинальная звуковая дорожка: French
Cубтитры: Russian-Режиссер: Клод Миллер / Claude Miller
В ролях: Лино Вентура, Мишель Серро, Роми Шнайдер, Ги Маршан, Дидье Агостини, Патрик Депейра, Пьер Магелон, Анн Миллер, Серж Малик, Жан-Клод Пеншена
Описание: Накануне Нового года инспектор полиции Антуан Гальен, расследующий убийство двух детей, вызывает нотариуса Жерома Мартино в качестве свидетеля по этому делу. Но на допросе выясняется, что Мартино подозревают в убийстве...-Релиз: by manofgod
Формат: MKV
Видео: 1200x720 at 25.000 fps, [email protected], 2pass, ~5480 kbps avg
Аудио #1: Russian: 48 kHz, AC3, 2/0 (L,R) ch, ~192.00 kbps avg |Многоголосый закадровый, "Неоклассика"|
Аудио #2: French: 48 kHz, DTS, 1/0 (C) ch, ~768.00 kbps avg
Семпл-

Кадры из фильма


-

Log


raw [info]: 1200x720p 1:1 @ 25/1 fps (cfr)
x264 [info]: using SAR=1/1
x264 [info]: using cpu capabilities: MMX2 SSE2Fast SSSE3 SSE4.2 AVX
x264 [info]: profile High, level 4.1
x264 [info]: frame I:736 Avg QP:15.21 size:120433
x264 [info]: frame P:24757 Avg QP:17.30 size: 58191
x264 [info]: frame B:100583 Avg QP:19.10 size: 19120
x264 [info]: consecutive B-frames: 1.0% 1.2% 6.1% 11.4% 18.9% 51.3% 9.7% 0.2% 0.1% 0.1%
x264 [info]: mb I I16..4: 7.4% 81.3% 11.4%
x264 [info]: mb P I16..4: 0.5% 26.2% 1.1% P16..4: 22.6% 31.6% 16.4% 0.0% 0.0% skip: 1.6%
x264 [info]: mb B I16..4: 0.0% 1.4% 0.0% B16..8: 33.5% 27.1% 4.8% direct:10.0% skip:23.1% L0:38.4% L1:39.9% BI:21.7%
x264 [info]: 8x8 transform intra:93.4% inter:41.3%
x264 [info]: direct mvs spatial:98.7% temporal:1.3%
x264 [info]: coded y,uvDC,uvAC intra: 97.9% 80.7% 57.2% inter: 39.6% 22.4% 7.4%
x264 [info]: i16 v,h,dc,p: 39% 6% 13% 42%
x264 [info]: i8 v,h,dc,ddl,ddr,vr,hd,vl,hu: 12% 7% 12% 9% 11% 14% 9% 14% 11%
x264 [info]: i4 v,h,dc,ddl,ddr,vr,hd,vl,hu: 11% 6% 5% 9% 15% 18% 12% 14% 10%
x264 [info]: i8c dc,h,v,p: 38% 25% 21% 15%
x264 [info]: Weighted P-Frames: Y:2.3% UV:0.9%
x264 [info]: ref P L0: 35.0% 9.2% 22.0% 7.7% 8.4% 5.0% 5.9% 2.9% 3.7% 0.2% 0.0%
x264 [info]: ref B L0: 82.3% 8.8% 3.2% 2.0% 1.3% 1.2% 0.7% 0.5%
x264 [info]: ref B L1: 97.3% 2.7%
x264 [info]: kb/s:5476.80
encoded 126076 frames, 7.55 fps, 5476.80 kb/s

-

mInfo


Формат : Matroska
Версия формата : Version 2
Размер файла : 3,78 Гбайт
Продолжительность : 1 ч. 24 м.
Общий поток : 6440 Кбит/сек
Дата кодирования : UTC 2013-04-13 20:01:34
Программа кодирования : mkvmerge v5.8.0 ('No Sleep / Pillow') built on Sep 2 2012 15:37:04
Библиотека кодирования : libebml v1.2.3 + libmatroska v1.3.0
Видео
Идентификатор : 1
Формат : AVC
Формат/Информация : Advanced Video Codec
Профиль формата : [email protected]
Параметр CABAC формата : Да
Параметр ReFrames формата : 9 кадров
Идентификатор кодека : V_MPEG4/ISO/AVC
Продолжительность : 1 ч. 24 м.
Битрейт : 5480 Кбит/сек
Ширина : 1200 пикселей
Высота : 720 пикселей
Соотношение сторон : 1,667
Режим частоты кадров : Постоянный
Частота кадров : 25,000 кадров/сек
Цветовое пространство : YUV
Субдискретизация насыщенности : 4:2:0
Битовая глубина : 8 бит
Тип развёртки : Прогрессивная
Бит/(Пиксели*Кадры) : 0.254
Размер потока : 3,14 Гбайт (83%)
Заголовок : Под предварительным следствием / Garde a vue (1981) - Release for HDClub
Библиотека кодирования : x264 core 130 r2273 b3065e6
Настройки программы : cabac=1 / ref=9 / deblock=1:-3:-2 / analyse=0x3:0x113 / me=umh / subme=11 / psy=1 / psy_rd=1.20:0.20 / mixed_ref=1 / me_range=32 / chroma_me=1 / trellis=2 / 8x8dct=1 / cqm=0 / deadzone=21,11 / fast_pskip=0 / chroma_qp_offset=-3 / threads=12 / lookahead_threads=2 / sliced_threads=0 / nr=0 / decimate=0 / interlaced=0 / bluray_compat=0 / constrained_intra=0 / bframes=9 / b_pyramid=2 / b_adapt=2 / b_bias=0 / direct=3 / weightb=1 / open_gop=0 / weightp=2 / keyint=250 / keyint_min=25 / scenecut=40 / intra_refresh=0 / rc_lookahead=120 / rc=2pass / mbtree=0 / bitrate=5480 / ratetol=1.0 / qcomp=0.70 / qpmin=0 / qpmax=69 / qpstep=4 / cplxblur=20.0 / qblur=0.5 / vbv_maxrate=50000 / vbv_bufsize=62500 / nal_hrd=none / ip_ratio=1.40 / pb_ratio=1.30 / aq=2:1.00
Язык : French
Default : Да
Forced : Нет
Основные цвета : BT.709
Характеристики трансфера : BT.709
Коэффициенты матрицы : BT.709
Аудио #1
Идентификатор : 2
Формат : AC-3
Формат/Информация : Audio Coding 3
Профиль формата : Dolby Digital
Расширение режима : CM (complete main)
Параметр Endianness формата : Big
Идентификатор кодека : A_AC3
Продолжительность : 1 ч. 24 м.
Вид битрейта : Постоянный
Битрейт : 192 Кбит/сек
Каналы : 2 канала
Расположение каналов : Front: L R
Частота : 48,0 КГц
Битовая глубина : 16 бит
Метод сжатия : С потерями
Размер потока : 115 Мбайт (3%)
Заголовок : Многоголосый закадровый, "Неоклассика", AC-3 192 Kbps 2/0
Язык : Russian
Default : Да
Forced : Нет
Аудио #2
Идентификатор : 3
Формат : DTS
Формат/Информация : Digital Theater Systems
Режим : 16
Параметр Endianness формата : Big
Идентификатор кодека : A_DTS
Продолжительность : 1 ч. 24 м.
Вид битрейта : Постоянный
Битрейт : 768 Кбит/сек
Каналы : 1 канал
Расположение каналов : Front: C
Частота : 48,0 КГц
Битовая глубина : 16 бит
Метод сжатия : С потерями
Размер потока : 462 Мбайт (12%)
Заголовок : Оригинал, DTS 768 Kbps 1/0
Язык : French
Default : Нет
Forced : Нет
Текст
Идентификатор : 4
Формат : UTF-8
Идентификатор кодека : S_TEXT/UTF8
Идентификатор кодека/Информация : UTF-8 Plain Text
Заголовок : Субтитры
Язык : Russian
Default : Нет
Forced : Нет
Меню
00:00:00.000 : fr:Chapter 01
00:06:09.280 : fr:Chapter 02
00:13:33.320 : fr:Chapter 03
00:25:34.080 : fr:Chapter 04
00:30:54.880 : fr:Chapter 05
00:36:53.640 : fr:Chapter 06
00:45:12.080 : fr:Chapter 07
00:51:25.200 : fr:Chapter 08
00:59:56.520 : fr:Chapter 09
01:06:26.160 : fr:Chapter 10
01:15:35.640 : fr:Chapter 11
01:22:40.400 : fr:Chapter 12

-
Цитата:

*** Сохранены оригинальные чаптеры как на Blu-ray.
Other forum [Profile] [PM]
Display posts from previous:    
Reply to topic

The time now is: Today 13:09

All times are GMT + 3 Hours



You cannot post new topics in this forum
You cannot reply to topics in this forum
You cannot edit your posts in this forum
You cannot delete your posts in this forum
You cannot vote in polls in this forum
You cannot attach files in this forum
You cannot download files in this forum