Today is a free download without charge Download

Думай как женщина (2013) SATRip (1 серия из ??) [Обновляемый]

Reply to topic
 
Author
Message

UndegraundMen ®

Longevity: 8 years 9 months

Posts: 25145

Торрент-статистика

Post 16-Apr-2013 00:00

[Quote]

Думай как женщина (2013) SATRip- Русское название: Думай как женщина
Год выпуска: 2013
Жанр: Комедия
Описание фильма:
Топ-менеджер турфирмы «Отдохни Ко» Евгений Новиков проводит сокращение штата и не глядя увольняет сотрудницу филиала Дашу Светлову. Вскоре Евгений узнаёт, что проект, над которым работала Даша, может принести огромные деньги. Евгений пытается вернуть её, но Даша отказывается и несёт проект конкурентам. Евгений, пользуясь тем, что Даша не знает его в лицо, назначает ей встречу под видом представителя американской турфирмы...
Режиссер: Андрей Силкин
Актеры: НМарат Башаров, Анна Попова, Иван Шмаков, Карина Зверева, Александр Арсентьев, Владимир Зайцев, Татьяна Орлова, Сергей Габриэлян, Владимир Стержаков, Антон Васильев, Екатерина Дубакина, Елизавета Лотова, Кирилл Запорожский, Анастасия Захарова, Александра Макарская, Сергей Беляев, Евгения Дмитриева, Михаил Бескоровайный, Михаил Павлик, Ольга Хохлова, Владимир Качан, Анатолий Калмыков, Сергей Жарков, Виктория Лукина
Продолжительность: 00:48:11
Видеокодек: XviD
Битрейт видео: ~1650 Кбит/с
Размер кадра: 720x400
Качество видео: SATRip
Аудиокодек: MP3 2- канала
Битрейт аудио: 128 Кбит/с

Дополнительно о фильме

Евгений Новиков - гуру и спец по женским сердцам, перед ним не устоит ни одна девушка. Он с легкостью меняет подруг и даже не собирается искать «ту единственную». Женятся друзья, меняются коллеги, а Женя остается все тем же прожигателем жизни и ловеласом - он запросто может выкрасть друга-жениха за день до свадьбы, устроить ему мальчишник на Кипре, а сам с легкостью проведет ночь с прекрасной девушкой, отбив её у спутника...
Но однажды в его жизни появляется Даша.
Даша - бывшая сотрудница Новикова: когда-то девушка предоставила шефу оригинальный туристический проект, но тот, взглянув на него, уволил подчиненную.
Теперь все изменилось. Дашин проект может выиграть тендер Министерства культуры. Но, вспомнив старую обиду, девушка отказывается сотрудничать с бывшим начальником. В то время как Новиков спит и видит - как бы заполучить проект Даши.
Не придумав ничего лучше, Евгений идет на крайние меры - он решает украсть Дашин проект, но неожиданно для себя влюбляется в бывшую подчиненную. Однако, конкурентная борьба так велика, что Новиков, воспользовавшись доверием Даши, доводит дело до конца - несмотря на влюбленность, крадет ее работу и выигрывает тендер, а девушка теряет все, чем рискнула.
Впрочем, и сам Женя оказывается в неприятной ситуации: его обвиняют в хищении. В итоге, пытаясь уйти от преследования, он попадает в аварию и теперь все считают его погибшим.
В сложившейся ситуации решение приходит само собой - Женя решает вернуться в свой офис, правда, в образе женщины бальзаковского возраста - Евы Анатольевны.
Теперь ему предстоит вернуть доверие возлюбленной и восстановить репутацию. Кроме этого он сделает открытие: для того, чтобы стать настоящим мужчиной, нужно встать на каблуки.

MI

Общее
Полное имя : D:\Doc.filmi\всякое\Думай как женщина.SATRip.XviD.2013.[/*spam*/]\Dumay.kak.Zhenschina.(1.seriya).2013.XviD.SATRip.avi
Формат : AVI
Формат/Информация : Audio Video Interleave
Размер файла : 614 Мбайт
Продолжительность : 48 м.
Общий поток : 1781 Кбит/сек
Библиотека кодирования : VirtualDub build 34807/release
Видео
Идентификатор : 0
Формат : MPEG-4 Visual
Профиль формата : Advanced [email protected]
Параметр BVOP формата : 2
Параметр QPel формата : Нет
Параметр GMC формата : Без точки перехода
Параметр матрицы формата : Default (H.263)
Режим смешивания : Сжатый битовый поток
Идентификатор кодека : XVID
Идентификатор кодека/Подсказка : XviD
Продолжительность : 48 м.
Битрейт : 1643 Кбит/сек
Ширина : 720 пикселей
Высота : 400 пикселей
Соотношение сторон : 16:9
Частота кадров : 25,000 кадров/сек
Цветовое пространство : YUV
Субдискретизация насыщенности : 4:2:0
Битовая глубина : 8 бит
Тип развёртки : Прогрессивная
Метод сжатия : С потерями
Бит/(Пиксели*Кадры) : 0.228
Размер потока : 566 Мбайт (92%)
Библиотека кодирования : XviD 64
Аудио
Идентификатор : 1
Формат : MPEG Audio
Версия формата : Version 1
Профиль формата : Layer 3
Режим : Joint stereo
Идентификатор кодека : 55
Идентификатор кодека/Подсказка : MP3
Продолжительность : 48 м.
Вид битрейта : Постоянный
Битрейт : 128 Кбит/сек
Каналы : 2 канала
Частота : 48,0 КГц
Метод сжатия : С потерями
Размер потока : 44,1 Мбайт (7%)
Выравнивание : Разделение по промежуткам
Продолжительность промежутка : 40 мс. (1,00 видеокадр)
Время предзагрузки промежутка : 500 мс.
Скриншоты:            Время раздачи: С 06:00 до 22:00
Other forum [Profile] [PM]
Display posts from previous:    
Reply to topic

The time now is: Today 23:12

All times are GMT + 3 Hours



You cannot post new topics in this forum
You cannot reply to topics in this forum
You cannot edit your posts in this forum
You cannot delete your posts in this forum
You cannot vote in polls in this forum
You cannot attach files in this forum
You cannot download files in this forum