Today is a free download without charge Download

Хуторянин [1 серии из 12] (2013) SATRip [Обновляемая]

Reply to topic
 
Author
Message

UndegraundMen ®

Longevity: 8 years 9 months

Posts: 25145

Торрент-статистика

Post 16-Apr-2013 00:00

[Quote]

Хуторянин [1-4 серии из 12] (2013) SATRip [Обновляемая]- Русское название: Хуторянин
Выпущено: Россия
Год выпуска: 2013
Жанр: Драма, Боевик
Перевод: Оригинал (Русский)
Субтитры: Отсутствуют

Дата российской премьеры: 15 апреля 2013
Режиссер: Виктор Мережко
Актеры: Вера Баханкова, Андрей Чернышов, Олег Басилашвили, Игорь Скляр, Светлана Смирнова, Владимир Кошевой, Тата Хачатрян, Саша Дробитько, Анастасия Венкова, Михаил Сидаш, Андрей Павловец, Игорь Фурманюк, Николай Мартон, Варвара Щербакова, Анастасия Рубова
Описание фильма:
В сериале Хуторянин рассказывается история о честнейшем и принципиальном человеке - Сергее Краснове. Бывший военный, прошедший хорошую боевую подготовку, Краснов привык к военной дисциплине и требует того же от других. Владея собственным процветающим хутором, он никогда не нарушает закон и не идет ни на какие сделки с бандитами. Но коррумпированным чиновникам приглянулся хуторок Сергея и они решили, что забрать его не составит никакого труда. Но Краснов вступает в смертельную борьбу с местной мафией, тем более, что простить им смерть жены не собирается. Найдя единомышленников, двух оперативников, прославившихся в округе своей принципиальностью и неподкупностью, Сергей вместе с ними разрабатывает план, как разоблачить и наказать властные структуры, связавшиеся с криминалом.
Продолжительность: 4 х ~ 00:43:47 серия
Качество видео: SATRip
Видеокодек: DivX 5
Битрейт видео: ~1601 Kbit/s
Размер кадра: 704 x 400
Аудиокодек: MP3, 2.0
Битрейт аудио: 128 Kbit/sВнимание! Раздача ведётся путём добавления новых серий

Внимание! Раздача ведётся путём добавления новых серий. Описание обновления торрента.

Внимание! Раздача ведётся путём добавления новых серий; при каждом добавлении создётся новый торрент. Чтобы начать докачку новой серии, пользователям необходимо сделать следующее:
(1) остановить скачивание,
(2) удалить старый торрент у себя из клиента (старые серии удалять не надо),
(3) скачать новый торрент и запустить его у себя в клиенте вместо старого, при этом указать клиенту путь в старую папку куда и должно происходить скачивание новых серий.
Ваш клиент при этом должен произвести хеширование (проверку) старой папки (если не производит сам - помогите ему сделать это), и будет докачивать только те серии которых у вас ещё нет. Старые серии при этом не удаляются, а продолжают раздаваться!
Eсли вы уже удалили старые серии, то предотвратить повторную закачку старых серий можно, отжав галочку в соответсвующих местах при запуске нового торрента. По возможности, желательно не удалять старые серии как можно дольше чтобы релизёр не столько продолжал раздавать старые серии, а смог сконцентрироваться на новых.

MediaInfo

Общее
Полное имя : D:\Торренты\ФИЛЬМЫ торента\Хуторянин. 2013. SATRip\Хуторянин.01.avi
Формат : AVI
Формат/Информация : Audio Video Interleave
Размер файла : 546 Мбайт
Продолжительность : 43 м.
Общий поток : 1742 Кбит/сек
Библиотека кодирования : Boilsoft AVI tool build 1/release
Видео
Идентификатор : 0
Формат : MPEG-4 Visual
Параметр BVOP формата : Да
Параметр QPel формата : Нет
Параметр GMC формата : Без точки перехода
Параметр матрицы формата : Default (H.263)
Идентификатор кодека : DX50
Идентификатор кодека/Подсказка : DivX 5
Продолжительность : 43 м.
Битрейт : 1601 Кбит/сек
Ширина : 704 пикс.
Высота : 400 пикс.
Соотношение сторон : 16:9
Частота кадров : 25,000 кадр/сек
Цветовое пространство : YUV
Подвыборка цветности : 4:2:0
Битовая глубина : 8 бит
Тип развёртки : Прогрессивная
Метод сжатия : С потерями
Бит/(Пиксели*Кадры) : 0.227
Размер потока : 501 Мбайт (92%)
Библиотека кодирования : Intel(R) MPEG-4 encoder based on Intel(R) IPP 6.1 build 137.20[6.1.137.763]
Аудио
Идентификатор : 1
Формат : MPEG Audio
Версия формата : Version 1
Профиль формата : Layer 3
Режим : Joint stereo
Расширение режима : MS Stereo
Идентификатор кодека : 55
Идентификатор кодека/Подсказка : MP3
Продолжительность : 43 м.
Вид битрейта : Постоянный
Битрейт : 128 Кбит/сек
Каналы : 2 канала
Частота : 48,0 КГц
Метод сжатия : С потерями
Размер потока : 40,1 Мбайт (7%)
Выравнивание : Соединение по промежуткам
Продолжительность промежутка : 24 мс. (0,60 видеокадр)
Время предзагрузки промежутка : 504 ms
Библиотека кодирования : LAME3.98.2
Скриншоты:
           
Время раздачи: 24/7 по возможности
Other forum [Profile] [PM]
Display posts from previous:    
Reply to topic

The time now is: Today 18:34

All times are GMT + 3 Hours



You cannot post new topics in this forum
You cannot reply to topics in this forum
You cannot edit your posts in this forum
You cannot delete your posts in this forum
You cannot vote in polls in this forum
You cannot attach files in this forum
You cannot download files in this forum