Today is a free download without charge Download

Выхожу тебя искать-2 [12 серий из 12] (2012) DVB

Reply to topic
 
Author
Message

UndegraundMen ®

Longevity: 8 years 9 months

Posts: 25145

Торрент-статистика

Post 16-Apr-2013 00:00

[Quote]

Выхожу тебя искать-2 [12 серий из 12] (2012) DVB- Русское название: Выхожу тебя искать-2
Выпущено: Россия
Год выпуска: 2012
Жанр: Мелодрама, Криминал, Детектив
Перевод: Оригинал (Русский)
Субтитры: Присутствуют
Дата российской премьеры: 8 апреля 2013

Режиссер: Сергей Бобров
Актеры: Ольга Арнтгольц, Константин Соловьёв, Николай Иванов, Наташа Швец, Даниил Кокин, Алексей Лунёв, Максим Туранцев, Татьяна Косач-Брындина, Дмитрий Ендальцев, Ирина Бразговка, Жанна Эппле, Эрик Дик, Сергей Шеховцов, Елена Старостина, Александр Зельский, Надежда Евтехова, Марина Петренко, Владимир Жарков, Лилия Разакова, Дмитрий Мазуров
Описание фильма: Прошло почти четыре года. Братья Демировы работают всё в том же отделе "Р". Михаил, похоже, остепенился. У него длительные - двухлетние - отношения с девушкой. Живут под одной крышей, строят планы на будущее, все идет к свадьбе. В семье у Дениса тоже всё замечательно. Единственное, что омрачает жизнь - отсутствие детей. После очередного безрезультатного курса лечения, Ольга решается на усыновление. Денис на словах тоже "за".Рита вынуждена обратиться за помощью к Демировым - её приемный отец, доктор Высоцкий, уехал в Москву в командировку, и не вернулся. Рита пробует самостоятельно искать его по горячим следам, но в конце концов приходит в отдел "Р" к Демировым за помощью. Когда становится очевидно, что следствие будет долгим, Рита принимает предложение вернуться в отдел на работу, и заниматься поисками отца в свободное от основной работы время. Но Рита не рассказывает братьям всю правду – три года назад она родила от Дениса дочь…
Продолжительность: 12х~00:52:00
Качество видео: DVB
Видеокодек: MPEG2
Битрейт видео: ~2980 Kbps
Размер кадра: 704x576
Аудиокодек: MPEG1
Битрейт аудио: 192 Кбит/сек
Rip: Серый1779

MediaInfo

Общее
Полное имя : D:\Выхожу тебя искать 2 DVB\Выхожу тебя искать 2_01_серия_DVB_by_Серый1779.mpg
Формат : MPEG-PS
Размер файла : 1,16 Гбайт
Продолжительность : 51 м.
Общий поток : 3237 Кбит/сек
Видео
Идентификатор : 224 (0xE0)
Формат : MPEG Video
Версия формата : Version 2
Профиль формата : [email protected]
Параметр BVOP формата : Да
Параметр матрицы формата : По умолчанию
Параметры GOP формата : M=3, N=30
Продолжительность : 51 м.
Вид битрейта : Переменный
Битрейт : 2980 Кбит/сек
Номинальный битрейт : 15,0 Мбит/сек
Ширина : 704 пикс.
Высота : 576 пикс.
Соотношение сторон : 4:3
Частота кадров : 25,000 кадр/сек
Стандарт вещания : PAL
Цветовое пространство : YUV
Подвыборка цветности : 4:2:0
Битовая глубина : 8 бит
Тип развёртки : Чересстрочная
Порядок развёртки : Верхнее поле первое
Метод сжатия : С потерями
Бит/(Пиксели*Кадры) : 0.294
Размер потока : 1,07 Гбайт (92%)
Аудио
Идентификатор : 192 (0xC0)
Формат : MPEG Audio
Версия формата : Version 1
Профиль формата : Layer 2
Продолжительность : 51 м.
Вид битрейта : Постоянный
Битрейт : 192 Кбит/сек
Каналы : 2 канала
Частота : 48,0 КГц
Метод сжатия : С потерями
Размер потока : 70,5 Мбайт (6%)
Скриншоты:
       
Other forum [Profile] [PM]
Display posts from previous:    
Reply to topic

The time now is: Today 17:47

All times are GMT + 3 Hours



You cannot post new topics in this forum
You cannot reply to topics in this forum
You cannot edit your posts in this forum
You cannot delete your posts in this forum
You cannot vote in polls in this forum
You cannot attach files in this forum
You cannot download files in this forum