Today is a free download without charge Download

Даша (2013) (серии 1-2 из 2) HDTV [1080i]

Reply to topic
 
Author
Message

UndegraundMen ®

Longevity: 8 years 9 months

Posts: 25145

Торрент-статистика

Post 16-Apr-2013 00:00

[Quote]

Даша (2013) (серии 1-2 из 2) HDTV [1080i]- Русское название: Даша
Производство: Россия, кинокомпания УПС
Год выпуска: 2013
Жанр: Мелодрама
Режиссер: Антон Азаров
Актеры: Александр Тютин, Андрей Барило, Дарья Егорова, Артем Фадеев, Игорь Писный, Любава Грешнова
Описание фильма:
Семнадцатилетняя воспитанница провинциального детского дома Даша становится жертвой богатого мошенника Богданова. Чтобы уберечь свое имущество от конфискации, он выдает Дашу за свою внебрачную дочь, которую разыскал, чтобы загладить прошлые грехи и дать дочери престижное заграничное образование. На самом деле Богданов хочет переписать на девочку свое имущество и избавиться от нее.
Только он не учел, что у Даши волевой, свободолюбивый характер: девушка, которая выросла в детском доме, привыкла принимать решения самостоятельно. Она не согласна гнить в рабстве из-за прихоти проворовавшегося негодяя. И теперь богатая невеста Даша будет бороться за свою жизнь и счастье, которое она заслужила.

Дата российской премьеры: 13.04.2013
Продолжительность: 2 x ~ 01:30:00
Качество видео: HDTV
Видеокодек: AVC/H.264
Битрейт видео: ~7800 Kbps
Размер кадра: 1920x1080
Аудиокодек: AC3
Битрейт аудио: 2 ch, 192 Kbps

MediaInfo:

Код:
Общее
Уникальный идентификатор : 220069344991019023147428622678928379926 (0xA58FD06B3756B03099CDDB9F61FFD016)
Полное имя : E:\DOWNLOADS\Даша (2013) HDTV 1080\Даша - 1 серия.mkv
Формат : Matroska
Версия формата : Version 2
Размер файла : 5,13 Гбайт
Продолжительность : 1 ч. 30 м.
Общий поток : 8154 Кбит/сек
Дата кодирования : UTC 2013-04-15 06:32:40
Программа кодирования : mkvmerge v5.6.0 ('Kenya Kane') built on Jun 29 2012 15:01:44
Библиотека кодирования : libebml v1.2.3 + libmatroska v1.3.0
Видео
Идентификатор : 1
Формат : AVC
Формат/Информация : Advanced Video Codec
Профиль формата : [url=mailto:[email protected]][email protected][/url]
Параметр CABAC формата : Да
Параметр ReFrames формата : 3 кадра
Идентификатор кодека : V_MPEG4/ISO/AVC
Продолжительность : 1 ч. 30 м.
Битрейт : 7800 Кбит/сек
Ширина : 1920 пикселей
Высота : 1080 пикселей
Соотношение сторон : 16:9
Режим частоты кадров : Постоянный
Частота кадров : 25,000 кадров/сек
Цветовое пространство : YUV
Субдискретизация насыщенности : 4:2:0
Битовая глубина : 8 бит
Тип развёртки : MBAFF
Бит/(Пиксели*Кадры) : 0.150
Размер потока : 4,91 Гбайт (96%)
Default : Да
Forced : Нет
Аудио
Идентификатор : 2
Формат : AC-3
Формат/Информация : Audio Coding 3
Расширение режима : CM (complete main)
Параметр Endianness формата : Big
Идентификатор кодека : A_AC3
Продолжительность : 1 ч. 30 м.
Вид битрейта : Постоянный
Битрейт : 192 Кбит/сек
Каналы : 2 канала
Расположение каналов : Front: L R
Частота : 48,0 КГц
Битовая глубина : 16 бит
Метод сжатия : С потерями
Размер потока : 124 Мбайт (2%)
Default : Да
Forced : Нет
Скриншоты:
Other forum [Profile] [PM]
Display posts from previous:    
Reply to topic

The time now is: Today 22:50

All times are GMT + 3 Hours



You cannot post new topics in this forum
You cannot reply to topics in this forum
You cannot edit your posts in this forum
You cannot delete your posts in this forum
You cannot vote in polls in this forum
You cannot attach files in this forum
You cannot download files in this forum