Today is a free download without charge Download

След в океане (1964) SATRip [H.264]

Reply to topic
 
Author
Message

UndegraundMen ®

Longevity: 6 years 2 months

Posts: 23038

Торрент-статистика

Post 16-Apr-2013 00:00

[Quote]

След в океане (1964) SATRip [H.264]- Русское название: След в океане
Год выпуска: 1964
Производство: СССР, Свердловская киностудия
Жанр: Приключения
Перевод: Не требуется [Русский язык]
Язык субтитров: Нет
Дата мировой премьеры: 30 мая 1965
Режиссер: Олег Николаевский
Сценарий: Кирилл Рапопорт, Борис Васильев
Композитор: Лев Степанов
Актеры: Ада Шереметьева, Юрий Дедович, Евгений Весник, Даниил Нетребин, Павел Махотин, Игорь Сретенский, Геннадий Нилов, Владимир Протасенко, Улдис Ваздикс, Валерий Величко, Виктор Уральский, Михаил Орлов, Николай Савицкий
Описание фильма:
На одном из военных кораблей Северного флота недалеко от границы проходят секретные испытания нового акваланга, разработанного советским ученым. Район испытаний тщательно охраняется пограничниками. Для испытания нового акваланга собраны лучшие ныряльщики со всех флотов, за состоянием их здоровья наблюдает опытный врач, и возглавляет испытания лично изобретатель.
Уникальные возможности нового подводного дыхательного аппарата, превышающие все имеющиеся на данный момент аналоги в мире, всерьез интересуют западную разведку. Также их интересуют дневники ученого, в которых фиксируются все этапы испытаний. Для изъятия этих дневников под видом помощника врача из Москвы прилетает молодая аспирантка мединститута Балашова.

Продолжительность: 01:18:16
Качество видео: SATRip (AVC)
Видеокодек: MPEG4 AVC
Битрейт видео: 2469 Кбит/сек
Размер кадра: [email protected]
Аудио : Русский, AC3, 2 ch, 192 Кбит/сек

MediaInfo

Код:
Общее
Уникальный идентификатор                 : 231407644048504361289407674249193914683 (0xAE177DB8F256D39B82C2EB4836CB013B)
Полное имя                               : E:\Раздачи\Видео\След в океане (1964) SATRip-AVC.mkv
Формат                                   : Matroska
Версия формата                           : Version 2
Размер файла                             : 1,46 Гбайт
Продолжительность                        : 1 ч. 18 м.
Общий поток                              : 2663 Кбит/сек
Дата кодирования                         : UTC 2013-04-14 23:11:39
Программа кодирования                    : mkvmerge v5.0.1 ('Es ist Sommer') built on Nov  6 2011 16:23:40
Библиотека кодирования                   : libebml v1.2.2 + libmatroska v1.3.0
Видео
Идентификатор                            : 1
Формат                                   : AVC
Формат/Информация                        : Advanced Video Codec
Профиль формата                          : [url=mailto:[email protected]][email protected][/url]
Параметр CABAC формата                   : Да
Параметр ReFrames формата                : 11 кадров
Идентификатор кодека                     : V_MPEG4/ISO/AVC
Продолжительность                        : 1 ч. 18 м.
Битрейт                                  : 2469 Кбит/сек
Ширина                                   : 704 пикселя
Высота                                   : 576 пикселей
Соотношение сторон                       : 4:3
Частота кадров                           : 25,000 кадров/сек
Стандарт вещания                         : PAL
Цветовое пространство                    : YUV
Субдискретизация насыщенности            : 4:2:0
Битовая глубина                          : 8 бит
Тип развёртки                            : Прогрессивная
Бит/(Пиксели*Кадры)                      : 0.244
Размер потока                            : 1,32 Гбайт (91%)
Библиотека кодирования                   : x264 core 119 r2106 07efeb4
Настройки программы                      : cabac=1 / ref=11 / deblock=1:-3:-2 / analyse=0x3:0x113 / me=umh / subme=9 / psy=1 / psy_rd=1.00:0.20 / mixed_ref=1 / me_range=32 / chroma_me=1 / trellis=1 / 8x8dct=1 / cqm=0 / deadzone=21,11 / fast_pskip=0 / chroma_qp_offset=-3 / threads=3 / sliced_threads=0 / nr=0 / decimate=0 / interlaced=0 / bluray_compat=0 / constrained_intra=0 / bframes=8 / b_pyramid=2 / b_adapt=2 / b_bias=0 / direct=3 / weightb=1 / open_gop=0 / weightp=2 / keyint=250 / keyint_min=25 / scenecut=40 / intra_refresh=0 / rc_lookahead=60 / rc=2pass / mbtree=1 / bitrate=2469 / ratetol=1.0 / qcomp=0.60 / qpmin=0 / qpmax=69 / qpstep=4 / cplxblur=20.0 / qblur=0.5 / ip_ratio=1.40 / aq=1:1.00
Default                                  : Да
Forced                                   : Нет
Аудио
Идентификатор                            : 2
Формат                                   : AC-3
Формат/Информация                        : Audio Coding 3
Расширение режима                        : CM (complete main)
Параметр Endianness формата              : Big
Идентификатор кодека                     : A_AC3
Продолжительность                        : 1 ч. 18 м.
Вид битрейта                             : Постоянный
Битрейт                                  : 192 Кбит/сек
Каналы                                   : 2 канала
Расположение каналов                     : Front: L R
Частота                                  : 48,0 КГц
Битовая глубина                          : 16 бит
Метод сжатия                             : С потерями
Размер потока                            : 107 Мбайт (7%)
Default                                  : Да
Forced                                   : Нет
Скриншоты:
         
         -[url=/forum/viewtopic.php?t=410572]След в океане (1964) SATRip[/url]-Время раздачи: 9.00 - 23.00 (по мере возможности...)
Other forum [Profile] [PM]
Display posts from previous:    
Reply to topic

The time now is: Today 05:45

All times are GMT + 3 Hours



You cannot post new topics in this forum
You cannot reply to topics in this forum
You cannot edit your posts in this forum
You cannot delete your posts in this forum
You cannot vote in polls in this forum
You cannot attach files in this forum
You cannot download files in this forum