Today is a free download without charge Download

Хуторянин / Серии: 1-4 из 12 (Виктор Мережко) [2013, Драма, SATRip]

Reply to topic
 
Author
Message

Omen ®

Longevity: 9 years 1 month

Posts: 181086

Торрент-статистика

Post 15-Apr-2013 21:48

[Quote]

Хуторянин-- Год выпуска: 2013
Производство: ВИМ СТУДИО
Жанр: Драма
Продолжительность: ~00:45:00 серия
Субтитры: отсутствуют
Режиссёр: Виктор Мережко
В ролях: Вера Баханкова, Андрей Чернышов, Олег Басилашвили, Игорь Скляр, Светлана Смирнова, Владимир Кошевой, Тата Хачатрян, Саша Дробитько, Анастасия Венкова, Михаил Сидаш, Андрей Павловец, Игорь Фурманюк, Николай Мартон, Варвара Щербакова, Анастасия Рубова
Описание: Как быть, если однажды из-за засилья бандитов и коррумпированных чиновников честно жить и трудиться на собственной земле становится невозможно? Поддаться давлению обстоятельств и навсегда уехать, продав за бесценок хозяйство и землю? Или, несмотря на смертельную опасность и страх за близких людей, бросить преступной системе вызов?
Все раздачи сериала: http:///*spam*//forum/tracker.php?f=9&nm=%...E%F0%FF%ED%E8%ED
Сэмпл: http://multi-up.com/854988
Качество: SATRip
Формат: AVI
Видео кодек: DivX
Аудио кодек: MP3
Видео: 720x400 (16:9), 25 fps, DivX ~1500 kbps avg, 0.208 bit/pixel
Аудио: 48 kHz, MPEG Layer 3, 2 ch, ~128.00 kbps avg

Внимание! Раздача ведётся путём добавления новых серий!

Внимание! Раздача ведётся путём добавления новых серий; при каждом добавлении создётся новый торрент.
Чтобы начать докачку новой серии, пользователям необходимо сделать следующее:
1) остановить скачивание
2) удалить старый торрент у себя из клиента (старые серии удалять не надо)
3) скачать новый торрент и запустить его у себя в клиенте вместо старого, при этом указать клиенту путь в старую папку куда и должно происходить скачивание новых серий.
Ваш клиент при этом должен произвести хеширование (проверку) старой папки (если не производит сам - помогите ему сделать это), и будет докачивать только те серии которых у вас ещё нет. Старые серии при этом не удаляются, а продолжают раздаваться!
Eсли вы уже удалили старые серии, то предотвратить повторную закачку старых серий можно, отжав галочку в соответствовавших местах при запуске нового торрента.

MI

General
Complete name : Хуторянин\Хуторянин_01.avi
Format : AVI
Format/Info : Audio Video Interleave
File size : 513 MiB
Duration : 43mn 47s
Overall bit rate : 1 638 Kbps
Writing application : VirtualDubModRus 1.5.10.1 (build 2439/release)
Writing library : VirtualDubMod build 2439/release
Video
ID : 0
Format : MPEG-4 Visual
Format settings, BVOP : 1
Format settings, QPel : No
Format settings, GMC : No warppoints
Format settings, Matrix : Default (H.263)
Muxing mode : Packed bitstream
Codec ID : DX50
Codec ID/Hint : DivX 5
Duration : 43mn 47s
Bit rate : 1 500 Kbps
Width : 720 pixels
Height : 400 pixels
Display aspect ratio : 16:9
Frame rate : 25.000 fps
Color space : YUV
Chroma subsampling : 4:2:0
Bit depth : 8 bits
Scan type : Progressive
Compression mode : Lossy
Bits/(Pixel*Frame) : 0.208
Stream size : 470 MiB (92%)
Writing library : DivX 6.8.5 (UTC 2009-08-20)
Audio
ID : 1
Format : MPEG Audio
Format version : Version 1
Format profile : Layer 2
Codec ID : 50
Duration : 43mn 47s
Bit rate mode : Constant
Bit rate : 128 Kbps
Channel(s) : 2 channels
Sampling rate : 48.0 KHz
Compression mode : Lossy
Stream size : 40.1 MiB (8%)
Alignment : Aligned on interleaves
Interleave, duration : 40 ms (1.00 video frame)
Interleave, preload duration : 504 ms

Скриншоты

Other forum [Profile] [PM]
Display posts from previous:    
Reply to topic

The time now is: Today 23:32

All times are GMT + 3 Hours



You cannot post new topics in this forum
You cannot reply to topics in this forum
You cannot edit your posts in this forum
You cannot delete your posts in this forum
You cannot vote in polls in this forum
You cannot attach files in this forum
You cannot download files in this forum