Today is a free download without charge Download

Джек-потрошитель / Jack the Ripper (Дэвид Уикс / David Wickes) [1988, Великобритания, США, триллер, драма, криминал, детектив, BDRip 720p] MVO + DVO + Original Eng

Reply to topic
 
Author
Message

Omen ®

Longevity: 8 years 5 months

Posts: 181087

Торрент-статистика

Post 15-Apr-2013 21:48

[Quote]

Джек-потрошитель / Jack the Ripper
Страна: Великобритания, США
Жанр: триллер, драма, криминал, детектив
Год выпуска: 1988
Продолжительность: 01:36:18 + 01:33:23
Перевод: Профессиональный (многоголосый закадровый)
Перевод: Профессиональный (двухголосый закадровый)
Cубтитры: нет
Оригинальная аудиодорожка: английский-Режиссер: Дэвид Уикс / David Wickes
В ролях: Майкл Кейн, Арманд Ассанте, Рэй МакЭнэлли, Льюис Коллинз, Кен Бонс, Сьюзен Джордж, Джейн Сеймур, Гарри Эндрюс, Лизетт Энтони, Роджер Эштон-Гриффитс
Описание: В 1888 году Англия была взбудоражена серией убийств, случившихся в лондонском предместье Ист-Энд. Неуловимого убийцу, жестоко расправлявшегося со своими жертвами, окрестили Джеком-потрошителем. Личность убийцы так и не была установлена.
IMDb || КиноПоиск-Тип релиза: BDRip 720p [DON]
Контейнер: MKV
Видео: H.264/AVC, 1280x720 at 25.000 fps, ~4671 kbps
Аудио#1: Russian: 48 kHz, AC3, 2/0 (L,R) ch, 192.00 kbps |Многоголосый закадровый|
Аудио#2: Russian: 48 kHz, AC3, 2/0 (L,R) ch, 192.00 kbps |Двухголосый закадровый|
Аудио#3: English: 48 kHz, DTS, 3/2 (L,C,R,l,r) + LFE ch, 1510.00 kbps
Аудио#4: English: 48 kHz, AC3, 2/0 (L,R) ch, 192.00 kbps |Commentary|
Сэмпл

MediaInfo

x264

1-я серия

x264 [info]: frame I:1191 Avg QP:15.75 size:101543
x264 [info]: frame P:28518 Avg QP:17.74 size: 46407
x264 [info]: frame B:114751 Avg QP:19.26 size: 17666

2-я серия

x264 [info]: frame I:1071 Avg QP:16.06 size:108424
x264 [info]: frame P:26936 Avg QP:18.03 size: 55756
x264 [info]: frame B:112075 Avg QP:19.52 size: 27764

1-я серия

Format : Matroska
Format version : Version 2
File size : 4.64 GiB
Duration : 1h 36mn
Overall bit rate : 6 894 Kbps
Encoded date : UTC 2013-04-14 21:49:56
Writing application : mkvmerge v5.0.1 ('Es ist Sommer') built on Nov 6 2011 16:23:40
Writing library : libebml v1.2.2 + libmatroska v1.3.0
Video
ID : 1
Format : AVC
Format/Info : Advanced Video Codec
Format profile : [email protected]
Format settings, CABAC : Yes
Format settings, ReFrames : 9 frames
Codec ID : V_MPEG4/ISO/AVC
Duration : 1h 36mn
Bit rate : 4 671 Kbps
Width : 1 280 pixels
Height : 720 pixels
Display aspect ratio : 16:9
Frame rate : 25.000 fps
Color space : YUV
Chroma subsampling : 4:2:0
Bit depth : 8 bits
Scan type : Progressive
Bits/(Pixel*Frame) : 0.203
Stream size : 3.14 GiB (68%)
Writing library : x264 core 129 r2245kMod bc13772
Encoding settings : cabac=1 / ref=9 / deblock=1:-3:-3 / analyse=0x3:0x113 / me=umh / subme=9 / psy=1 / fade_compensate=0.00 / psy_rd=1.02:0.00 / mixed_ref=1 / me_range=16 / chroma_me=1 / trellis=2 / 8x8dct=1 / cqm=0 / deadzone=21,11 / fast_pskip=0 / chroma_qp_offset=-2 / threads=6 / lookahead_threads=1 / sliced_threads=0 / nr=0 / decimate=0 / interlaced=0 / bluray_compat=0 / constrained_intra=0 / bframes=8 / b_pyramid=2 / b_adapt=2 / b_bias=0 / direct=3 / weightb=1 / open_gop=0 / weightp=2 / keyint=250 / keyint_min=25 / scenecut=40 / intra_refresh=0 / rc_lookahead=40 / rc=crf / mbtree=1 / crf=18.0000 / qcomp=0.70 / qpmin=0 / qpmax=69 / qpstep=4 / ip_ratio=1.30 / aq=1:0.90
Language : English
Default : Yes
Forced : No
Audio #1
ID : 2
Format : AC-3
Format/Info : Audio Coding 3
Mode extension : CM (complete main)
Codec ID : A_AC3
Duration : 1h 36mn
Bit rate mode : Constant
Bit rate : 192 Kbps
Channel(s) : 2 channels
Channel positions : Front: L R
Sampling rate : 48.0 KHz
Bit depth : 16 bits
Compression mode : Lossy
Stream size : 132 MiB (3%)
Title : MVO
Language : Russian
Default : Yes
Forced : No
Audio #2
ID : 3
Format : AC-3
Format/Info : Audio Coding 3
Mode extension : CM (complete main)
Codec ID : A_AC3
Duration : 1h 36mn
Bit rate mode : Constant
Bit rate : 192 Kbps
Channel(s) : 2 channels
Channel positions : Front: L R
Sampling rate : 48.0 KHz
Bit depth : 16 bits
Compression mode : Lossy
Stream size : 132 MiB (3%)
Title : DVO
Language : Russian
Default : No
Forced : No
Audio #3
ID : 4
Format : DTS
Format/Info : Digital Theater Systems
Codec ID : A_DTS
Duration : 1h 36mn
Bit rate mode : Constant
Bit rate : 1 510 Kbps
Channel(s) : 6 channels
Channel positions : Front: L C R, Side: L R, LFE
Sampling rate : 48.0 KHz
Bit depth : 24 bits
Compression mode : Lossy
Delay relative to video : 2ms
Stream size : 1.02 GiB (22%)
Language : English
Default : No
Forced : No
Audio #4
ID : 5
Format : AC-3
Format/Info : Audio Coding 3
Mode extension : CM (complete main)
Codec ID : A_AC3
Duration : 1h 36mn
Bit rate mode : Constant
Bit rate : 192 Kbps
Channel(s) : 2 channels
Channel positions : Front: L R
Sampling rate : 48.0 KHz
Bit depth : 16 bits
Compression mode : Lossy
Delay relative to video : 12ms
Stream size : 132 MiB (3%)
Title : Commentary by director David Wickes, researcher Sue Davis, and novelist Jonathan Soskott
Language : English
Default : No
Forced : No
Menu
00:00:00.000 : en:00:00:00.000
00:16:25.680 : en:00:16:25.680
00:32:35.280 : en:00:32:35.280
00:52:51.680 : en:00:52:51.680
01:14:49.680 : en:01:14:49.680
01:35:07.920 : en:01:35:07.920

2-я серия

Format : Matroska
Format version : Version 2
File size : 5.77 GiB
Duration : 1h 33mn
Overall bit rate : 8 841 Kbps
Encoded date : UTC 2013-04-14 22:49:55
Writing application : mkvmerge v5.0.1 ('Es ist Sommer') built on Nov 6 2011 16:23:40
Writing library : libebml v1.2.2 + libmatroska v1.3.0
Video
ID : 1
Format : AVC
Format/Info : Advanced Video Codec
Format profile : [email protected]
Format settings, CABAC : Yes
Format settings, ReFrames : 9 frames
Codec ID : V_MPEG4/ISO/AVC
Duration : 1h 33mn
Bit rate : 6 579 Kbps
Width : 1 280 pixels
Height : 720 pixels
Display aspect ratio : 16:9
Frame rate : 25.000 fps
Color space : YUV
Chroma subsampling : 4:2:0
Bit depth : 8 bits
Scan type : Progressive
Bits/(Pixel*Frame) : 0.286
Stream size : 4.29 GiB (74%)
Writing library : x264 core 129 r2245kMod bc13772
Encoding settings : cabac=1 / ref=9 / deblock=1:-3:-3 / analyse=0x3:0x113 / me=umh / subme=9 / psy=1 / fade_compensate=0.00 / psy_rd=1.02:0.00 / mixed_ref=1 / me_range=16 / chroma_me=1 / trellis=2 / 8x8dct=1 / cqm=0 / deadzone=21,11 / fast_pskip=0 / chroma_qp_offset=-2 / threads=6 / lookahead_threads=1 / sliced_threads=0 / nr=0 / decimate=0 / interlaced=0 / bluray_compat=0 / constrained_intra=0 / bframes=8 / b_pyramid=2 / b_adapt=2 / b_bias=0 / direct=3 / weightb=1 / open_gop=0 / weightp=2 / keyint=250 / keyint_min=25 / scenecut=40 / intra_refresh=0 / rc_lookahead=40 / rc=crf / mbtree=1 / crf=18.0000 / qcomp=0.70 / qpmin=0 / qpmax=69 / qpstep=4 / ip_ratio=1.30 / aq=1:0.90
Language : English
Default : Yes
Forced : No
Audio #1
ID : 2
Format : AC-3
Format/Info : Audio Coding 3
Mode extension : CM (complete main)
Codec ID : A_AC3
Duration : 1h 33mn
Bit rate mode : Constant
Bit rate : 192 Kbps
Channel(s) : 2 channels
Channel positions : Front: L R
Sampling rate : 48.0 KHz
Bit depth : 16 bits
Compression mode : Lossy
Stream size : 128 MiB (2%)
Title : MVO
Language : Russian
Default : Yes
Forced : No
Audio #2
ID : 3
Format : AC-3
Format/Info : Audio Coding 3
Mode extension : CM (complete main)
Codec ID : A_AC3
Duration : 1h 33mn
Bit rate mode : Constant
Bit rate : 192 Kbps
Channel(s) : 2 channels
Channel positions : Front: L R
Sampling rate : 48.0 KHz
Bit depth : 16 bits
Compression mode : Lossy
Stream size : 128 MiB (2%)
Title : DVO
Language : Russian
Default : No
Forced : No
Audio #3
ID : 4
Format : DTS
Format/Info : Digital Theater Systems
Codec ID : A_DTS
Duration : 1h 33mn
Bit rate mode : Constant
Bit rate : 1 510 Kbps
Channel(s) : 6 channels
Channel positions : Front: L C R, Side: L R, LFE
Sampling rate : 48.0 KHz
Bit depth : 24 bits
Compression mode : Lossy
Delay relative to video : 2ms
Stream size : 1 008 MiB (17%)
Language : English
Default : No
Forced : No
Audio #4
ID : 5
Format : AC-3
Format/Info : Audio Coding 3
Mode extension : CM (complete main)
Codec ID : A_AC3
Duration : 1h 33mn
Bit rate mode : Constant
Bit rate : 192 Kbps
Channel(s) : 2 channels
Channel positions : Front: L R
Sampling rate : 48.0 KHz
Bit depth : 16 bits
Compression mode : Lossy
Delay relative to video : 12ms
Stream size : 128 MiB (2%)
Title : Commentary by director David Wickes, researcher Sue Davis, and novelist Jonathan Soskott
Language : English
Default : No
Forced : No
Menu
00:00:00.000 : en:00:00:00.000
00:14:31.440 : en:00:14:31.440
00:33:04.880 : en:00:33:04.880
00:55:00.640 : en:00:55:00.640
01:14:50.280 : en:01:14:50.280
01:31:32.320 : en:01:31:32.320

Скриншоты

DON vs Source More screens
Other forum [Profile] [PM]
Display posts from previous:    
Reply to topic

The time now is: Today 11:13

All times are GMT + 3 Hours



You cannot post new topics in this forum
You cannot reply to topics in this forum
You cannot edit your posts in this forum
You cannot delete your posts in this forum
You cannot vote in polls in this forum
You cannot attach files in this forum
You cannot download files in this forum