Today is a free download without charge Download

Самый страшный фильм / Dead Before Dawn (Эйприл Маллен / April Mullen) [2012, Канада, ужасы, комедия, приключения, BDRip 720p] Dub + Original Eng

Reply to topic
 
Author
Message

Omen ®

Longevity: 8 years 5 months

Posts: 181087

Торрент-статистика

Post 15-Apr-2013 21:48

[Quote]


-Самый страшный фильм / Dead Before Dawn-Страна: Канада
Жанр: ужасы, комедия, приключения
Год выпуска: 2012
Продолжительность: 01:28:23-Перевод: Профессиональный (дублированный)
Cубтитры: нет
Оригинальная аудиодорожка: английский-Режиссер: Эйприл Маллен / April Mullen
В ролях: Девон Бостик, Кристофер Ллойд, Марта МакАйсак, Брэндон Джей МакЛарен, Бриттани Аллен, Эйприл Маллен, Тим Дойрон, Кевин МакДональд, Эллен Дубин, Кайл Шмид-Описание: Комедийная пародия на фильмы о зомби. Оставшись за главного в лавке древностей, принадлежащей его деду, Каспер, и его друзья по колледжу, случайно разбивают старинный артефакт и обрушивают себе на голову древнее проклятье. Теперь, стоит им только взглянуть на кого-нибудь, как тот убивает себя, а потом воскресает зомбаком! Пока друзья разбирались в чем тут дело, половина города успела превратится в зомби. Зомбаками стали даже ребята из сборной колледжа по футболу и девчонки из группы поддержки. Теперь друзьям необходимо срочно найти способ снять проклятье. Это будет нелегко, но зато очень круто и дико смешно!-Доп. информация: Дубляж на DVD9 оказался дутым. Речь во всех каналах, кроме LFE, который вообще пустой. Пруф.-Тип релиза: BDRip 720p - СЭМПЛ
Контейнер: MKV
Видео: MPEG-4 AVC Video / 4155 kbps / 1280 X 690 p / 23.976 fps / 1.85: 1 / High Profile 4.1
Аудио: Dolby Digital Audio Russian 2.0 / 48 kHz / 192 kbps
Аудио 2: English / DTS Audio / 5.1 / 48 kHz / 1509 kbps / 16-bit

Видеоряд от CHD

Dead.Before.Dawn.2012.BluRay.720p.DTS.x264-CHD
RELEASE DATE....: 04/15/2013 THEATRE DATE....: 2012 iMDB URL........: http://www.imdb.com/title/tt1989485 iMDB RATiNG.....: 7.1/10 (1,047 votes) GENRE...........: Adventure, Comedy, Horror SOURCE..........: Dead Before Dawn 2012 BluRay 1080p AVC DTS-HD MA5.1-CHDBits ViDEO BiTRATE...: x264 @ 4155 Kbps FRAME RATE......: 23.976 fps AUDiO 1.........: ENG DTS-CORE 5.1CH @ 1536 Kbps RUNTiME 1.......: 01:28:23 (h:m:s) ASPECT RATiO....: 1.85: 1 RESOLUTiON......: 1280 X 690 SUBTiTLES.......: N/A FilE SiZE.......: 3.5G Encoder.........: @CHD
x264 [info]: frame I:1215 Avg QP:13.59 size:134171x264 [info]: frame P:29125 Avg QP:16.08 size: 44804x264 [info]: frame B:96822 Avg QP:18.73 size: 13283

MediaInfo

Код:
General
Complete name                    : F:\  -= Фильмы =-\Самый страшный фильм (2012. Dead Before Dawn) 720p.mkv
Format                           : Matroska
File size                        : 3.62 GiB
Duration                         : 1h 28mn
Overall bit rate                 : 5 857 Kbps
Encoded date                     : UTC 2013-04-15 17:41:03
Writing application              : mkvmerge v4.9.1 ('Ich will') сборка от Jul 11 2011 23:53:15
Writing library                  : libebml v1.2.1 + libmatroska v1.1.1
Video
ID                               : 1
Format                           : AVC
Format/Info                      : Advanced Video Codec
Format profile                   : [email protected]
Format settings, CABAC           : Yes
Format settings, ReFrames        : 8 frames
Muxing mode                      : Container [email protected]
Codec ID                         : V_MPEG4/ISO/AVC
Duration                         : 1h 28mn
Bit rate                         : 4 155 Kbps
Width                            : 1 280 pixels
Height                           : 690 pixels
Display aspect ratio             : 1.855
Frame rate                       : 23.976 fps
Color space                      : YUV
Chroma subsampling               : 4:2:0
Bit depth                        : 8 bits
Scan type                        : Progressive
Bits/(Pixel*Frame)               : 0.196
Stream size                      : 2.49 GiB (69%)
Title                            : Dead.Before.Dawn.2012.BluRay.720p.DTS.x264-CHD
Writing library                  : x264 core 125 r2208 d9d2288
Encoding settings                : cabac=1 / ref=8 / deblock=1:-3:-3 / analyse=0x3:0x113 / me=umh / subme=10 / psy=1 / psy_rd=1.00:0.05 / mixed_ref=1 / me_range=32 / chroma_me=1 / trellis=2 / 8x8dct=1 / cqm=0 / deadzone=21,11 / fast_pskip=0 / chroma_qp_offset=-2 / threads=8 / lookahead_threads=1 / sliced_threads=0 / nr=0 / decimate=1 / interlaced=0 / bluray_compat=0 / constrained_intra=0 / bframes=5 / b_pyramid=2 / b_adapt=2 / b_bias=0 / direct=3 / weightb=1 / open_gop=0 / weightp=2 / keyint=250 / keyint_min=23 / scenecut=40 / intra_refresh=0 / rc=2pass / mbtree=0 / bitrate=4155 / ratetol=1.0 / qcomp=0.70 / qpmin=0 / qpmax=69 / qpstep=4 / cplxblur=20.0 / qblur=0.5 / ip_ratio=1.40 / pb_ratio=1.30 / aq=2:1.00
Language                         : English
Audio #1
ID                               : 2
Format                           : AC-3
Format/Info                      : Audio Coding 3
Mode extension                   : CM (complete main)
Codec ID                         : A_AC3
Duration                         : 1h 28mn
Bit rate mode                    : Constant
Bit rate                         : 192 Kbps
Channel(s)                       : 2 channels
Channel positions                : Front: L R
Sampling rate                    : 48.0 KHz
Bit depth                        : 16 bits
Stream size                      : 121 MiB (3%)
Title                            : Дубляж
Language                         : Russian
Audio #2
ID                               : 3
Format                           : DTS
Format/Info                      : Digital Theater Systems
Codec ID                         : A_DTS
Duration                         : 1h 28mn
Bit rate mode                    : Constant
Bit rate                         : 1 510 Kbps
Channel(s)                       : 6 channels
Channel positions                : Front: L C R, Side: L R, LFE
Sampling rate                    : 48.0 KHz
Bit depth                        : 24 bits
Stream size                      : 955 MiB (26%)
Language                         : English
Menu
00:00:00.000                     : en:00:00:00.000
00:08:50.697                     : en:00:08:50.697
00:15:19.043                     : en:00:15:19.043
00:22:06.200                     : en:00:22:06.200
00:31:10.744                     : en:00:31:10.744
00:37:01.845                     : en:00:37:01.845
00:45:15.588                     : en:00:45:15.588
00:53:04.515                     : en:00:53:04.515
00:59:42.662                     : en:00:59:42.662
01:05:38.726                     : en:01:05:38.726
01:13:47.923                     : en:01:13:47.923
01:20:29.575                     : en:01:20:29.575

Скриншоты


Other forum [Profile] [PM]
Similar theme
Forum Topic Author Torrent Replies Last Post
./templates/default/images/folder_dl.gif Техническая и научно-популярная литература Де Агостини | Самый сокровенный секрет материи. Мария Кюри. Радиоактивность и элементы (Наука. Величайшие теории Т. 10) (2015) [PDF] Omen
1 | 0

0 | 520

3

2015-03-18 16:21
Omen Latest
Display posts from previous:    
Reply to topic

The time now is: Today 12:07

All times are GMT + 3 Hours



You cannot post new topics in this forum
You cannot reply to topics in this forum
You cannot edit your posts in this forum
You cannot delete your posts in this forum
You cannot vote in polls in this forum
You cannot attach files in this forum
You cannot download files in this forum