Today is a free download without charge Download

Blur - Coachella Festival, Indio, CA, USA (2013-04-12) [2013, britpop, HDTV 1080i]

Reply to topic
 
Author
Message

Omen ®

Longevity: 8 years 3 months

Posts: 181087

Торрент-статистика

Post 15-Apr-2013 05:32

[Quote]

Blur - Coachella Festival, Indio, CA, USA (2013-04-12)
Жанр: britpop
Продолжительность: 01:14:00
Год выпуска: 2013
Описание: Blur, 2013-04-12, Coachella Festival, Empire Polo Grounds, Indio, CA, USA.
01. Girls & Boys
02. There's No Other Way
03. Tracy Jacks
04. Beetlebum
05. Out of Time
06. Trimm Trabb
07. Caramel
08. Coffee & TV
09. Tender
10. Parklife / @With[Phil Daniels]
11. Song 2
12. This Is a Low
13. Sing
14. For Tomorrow
15. The Universal
Доп. информация: Two tracks incomplete because HiDownload Platinum saves files maximum of 1 GB, max. 30 seconds lost.
Качество: HDTV 1080i
Контейнер: TS
Видео кодек: MPEG2
Аудио кодек: AAC
Видео: 3 889 Kbps, 1920x1080 (16:9), AVC ([email protected]), CABAC / 1 ReFrames
Аудио: 251 Kbps, 48.0 KHz, 2 channels, AAC (ADTS), Version 4, LC

Отчёт MediaInfo / BDInfo

GeneralID : 1Complete name : C:\Новый том (L)\торренты\Blur 2013-04-12 Coachella Festival, Empire Polo Grounds, Indio, CA, USA [1080p]\Blur 2013-04-12 Coachella Festival, Empire Polo Grounds, Indio, CA, USA [1080p].tsFormat : MPEG-TSFile size : 2.31 GiBDuration : 1h 14mnOverall bit rate : 4 449 KbpsMaximum Overall bit rate : 35.5 Mbps
VideoID : 4113 (0x1011)Menu ID : 1 (0x1)Format : AVCFormat/Info : Advanced Video CodecFormat profile : [email protected] settings, CABAC : YesFormat settings, ReFrames : 1 frameDuration : 1h 14mnBit rate : 3 889 KbpsWidth : 1 920 pixelsHeight : 1 080 pixelsDisplay aspect ratio : 16:9Frame rate mode : VariableResolution : 8 bitsColorimetry : 4:2:0Scan type : ProgressiveStream size : 2.02 GiB (87%)
AudioID : 4352 (0x1100)Menu ID : 1 (0x1)Format : AACFormat/Info : Advanced Audio CodecFormat version : Version 4Format profile : LCMuxing mode : ADTSDuration : 1h 14mnBit rate mode : ConstantBit rate : 251 KbpsChannel(s) : 2 channelsSampling rate : 48.0 KHzVideo delay : 20msStream size : 134 MiB (6%)

Скриншоты

Other forum [Profile] [PM]
Display posts from previous:    
Reply to topic

The time now is: Today 23:22

All times are GMT + 3 Hours



You cannot post new topics in this forum
You cannot reply to topics in this forum
You cannot edit your posts in this forum
You cannot delete your posts in this forum
You cannot vote in polls in this forum
You cannot attach files in this forum
You cannot download files in this forum