Today is a free download without charge Download

Ментовские войны 7 / Серии: 1-2 из 16 (Сергей Раевский, Денис Скворцов) [2013, боевик, детектив, криминал, WEBRip]

Reply to topic
 
Author
Message

Omen ®

Longevity: 9 years 1 month

Posts: 181086

Торрент-статистика

Post 15-Apr-2013 01:29

[Quote]

Ментовские войны 7
Год выпуска: 2013
Производство: "Студия Панорама", "Форвард-фильм"
Жанр: боевик, детектив, криминал
Продолжительность: ~ 00:46:00 х 16
Режиссёр: Сергей Раевский, Денис Скворцов
В ролях: Александр Устюгов, Дмитрий Быковский-Ромашов, Всеволод Цурило, Андрей Родимов, Андрей Кузнецов, Светлана Смирнова-Кацагаджиева, Александр Марушев, Руслан Ибрагимов, Мария Иванова, Владимир Студеновский, Дмитрий Лебедев, Янина Соколовская, Евгения Устюгова, Сергей Лысов, Юлия Левакова, Роман Громадский, Марина Игнатова, Александр Лисицын, Анатолий Узденский, Елизавета Ковалева, Олег Вебер, Ольга Иванова, Сергей Федоров, Павел Юлку, Антон Виноградов, Алексей Лысенко, Дмитрий Белов, Даниил Эйдлин, Ольга Иванова, Татьяна Гончарова, Сергей Бубнов, Владимир Крылов, Мурад Султаниязов, Сергей Магиленич, Александр Сорокин, Максим Крупский, Иван Бровин, Игорь Бессчастнов, Роман Жилкин, Роман Синицын, Андрей Бордухаев, Полина Дудкина, Михаил Сливников, Станислав Казаку, Артем Цыпин итд...
Описание: В новых сериях сотрудники отдела по расследованию умышленных убийств ГУ МВД Санкт-Петербурга, уже аттестованные как полицейские, продолжат борьбу с наиболее опасными представителями криминальной изнанки города и будут вынуждены вновь столкнуться с так называемыми "оборотнями в погонах", которые способны причинить не меньший вред, чем закоренелые преступники.
Доп. информация:
Сэмпл - http://multi-up.com/854693
Спасибо kostik184 за предоставленный исходник!
релиз -
Качество: WEBRip
Формат: AVI
Видео кодек: XviD
Аудио кодек: AC3
Видео: 704x400 (1.76:1), 25 fps, XviD build 65 ~1494 kbps avg, 0.21 bit/pixel
Аудио: 48 kHz, AC3 Dolby Digital, 2/0 (L,R) ch, ~192 kbps

MI

Ментовские войны 7.WEBRip-SVAT\Ментовские войны 7.01.WEBRip-SVAT.avi
Format : AVI
Format/Info : Audio Video Interleave
File size : 559 MiB
Duration : 46mn 3s
Overall bit rate : 1 696 Kbps
Writing application : VirtualDubMod 1.5.10.3 | www.virtualdub-fr.org || (build 2550/release)
Writing library : VirtualDubMod build 2550/release
Video
ID : 0
Format : MPEG-4 Visual
Format profile : Advanced [email protected]
Format settings, BVOP : 2
Format settings, QPel : No
Format settings, GMC : No warppoints
Format settings, Matrix : Custom
Codec ID : XVID
Codec ID/Hint : XviD
Duration : 46mn 3s
Bit rate : 1 494 Kbps
Width : 704 pixels
Height : 400 pixels
Display aspect ratio : 16:9
Frame rate : 25.000 fps
Color space : YUV
Chroma subsampling : 4:2:0
Bit depth : 8 bits
Scan type : Progressive
Compression mode : Lossy
Bits/(Pixel*Frame) : 0.212
Stream size : 492 MiB (88%)
Writing library : XviD 65
Audio
ID : 1
Format : AC-3
Format/Info : Audio Coding 3
Mode extension : CM (complete main)
Format settings, Endianness : Big
Codec ID : 2000
Duration : 46mn 3s
Bit rate mode : Constant
Bit rate : 192 Kbps
Channel(s) : 2 channels
Channel positions : Front: L R
Sampling rate : 48.0 KHz
Bit depth : 16 bits
Compression mode : Lossy
Stream size : 63.3 MiB (11%)
Alignment : Split accross interleaves
Interleave, duration : 40 ms (1.00 video frame)
Interleave, preload duration : 500 ms

Скриншоты

Other forum [Profile] [PM]
Display posts from previous:    
Reply to topic

The time now is: Today 06:24

All times are GMT + 3 Hours



You cannot post new topics in this forum
You cannot reply to topics in this forum
You cannot edit your posts in this forum
You cannot delete your posts in this forum
You cannot vote in polls in this forum
You cannot attach files in this forum
You cannot download files in this forum