Today is a free download without charge Download

Даша / Серии: 1-2 из 2 (Антон Азаров) [2013, Мелодрама, HDTVRip - AVC]

Reply to topic
 
Author
Message

Omen ®

Longevity: 9 years 1 month

Posts: 181086

Торрент-статистика

Post 15-Apr-2013 01:29

[Quote]

Даша- Год выпуска: 2013
Производство: Россия, кинокомпания УПС
Жанр: Мелодрама
Продолжительность: ~ 01:30:00
Субтитры: нет-Режиссёр: Антон Азаров-В ролях: Александр Тютин, Андрей Барило, Дарья Егорова, Артем Фадеев, Игорь Писный, Любава Грешнова, Ирина Барбинова, Михаил Пшеничный, Андрей Дебрин-Описание: Семнадцатилетняя воспитанница провинциального детского дома Даша становится жертвой богатого мошенника Богданова. Чтобы уберечь свое имущество от конфискации, он выдает Дашу за свою внебрачную дочь, которую разыскал, чтобы загладить прошлые грехи и дать дочери престижное заграничное образование. На самом деле Богданов хочет переписать на девочку свое имущество и избавиться от нее. Только он не учел, что у Даши волевой, свободолюбивый характер: девушка, которая выросла в детском доме, привыкла принимать решения самостоятельно. Она не согласна гнить в рабстве из-за прихоти проворовавшегося негодяя. И теперь богатая невеста Даша будет бороться за свою жизнь и счастье, которое она заслужила...-Качество: HDTVRip
Формат: MKV
Видео кодек: H.264
Аудио кодек: AC3
Видео: x264, 1024 х 576 (16:9), 25,000 кадр/сек, ~ 1622 Кбит/сек, ~ 0.110 bit/pixel
Аудио: AC3, 48.0 KHz, 2 канала(ов), 192 Kbps

MI

Complete name : Даша.01 серия.2013.HDTVRip-AVC.Metla111.mkv
Format : Matroska
Format version : Version 2
File size : 1.14 GiB
Duration : 1h 30mn
Overall bit rate : 1 816 Kbps
Encoded date : UTC 2013-04-14 17:48:10
Writing application : mkvmerge v5.8.0 ('No Sleep / Pillow') built on Sep 2 2012 15:37:04
Writing library : libebml v1.2.3 + libmatroska v1.3.0
Video
ID : 1
Format : AVC
Format/Info : Advanced Video Codec
Format profile : [email protected]
Format settings, CABAC : Yes
Format settings, ReFrames : 10 frames
Codec ID : V_MPEG4/ISO/AVC
Duration : 1h 30mn
Bit rate : 1 622 Kbps
Width : 1 024 pixels
Height : 576 pixels
Display aspect ratio : 16:9
Frame rate mode : Constant
Frame rate : 25.000 fps
Color space : YUV
Chroma subsampling : 4:2:0
Bit depth : 8 bits
Scan type : Progressive
Bits/(Pixel*Frame) : 0.110
Stream size : 1 023 MiB (87%)
Writing library : x264 core 125 r2208 d9d2288
Encoding settings : cabac=1 / ref=10 / deblock=1:-3:-3 / analyse=0x3:0x113 / me=umh / subme=9 / psy=1 / psy_rd=1.00:0.20 / mixed_ref=1 / me_range=32 / chroma_me=1 / trellis=2 / 8x8dct=1 / cqm=0 / deadzone=21,11 / fast_pskip=0 / chroma_qp_offset=-3 / threads=12 / lookahead_threads=2 / sliced_threads=0 / nr=0 / decimate=0 / interlaced=0 / bluray_compat=0 / constrained_intra=0 / bframes=8 / b_pyramid=2 / b_adapt=2 / b_bias=0 / direct=3 / weightb=1 / open_gop=0 / weightp=2 / keyint=250 / keyint_min=25 / scenecut=40 / intra_refresh=0 / rc=2pass / mbtree=0 / bitrate=1622 / ratetol=1.0 / qcomp=0.70 / qpmin=0 / qpmax=69 / qpstep=4 / cplxblur=20.0 / qblur=0.5 / ip_ratio=1.40 / pb_ratio=1.30 / aq=1:1.00
Default : Yes
Forced : No
Color primaries : BT.709
Transfer characteristics : BT.709
Matrix coefficients : BT.709
Audio
ID : 2
Format : AC-3
Format/Info : Audio Coding 3
Mode extension : CM (complete main)
Format settings, Endianness : Big
Codec ID : A_AC3
Duration : 1h 30mn
Bit rate mode : Constant
Bit rate : 192 Kbps
Channel(s) : 2 channels
Channel positions : Front: L R
Sampling rate : 48.0 KHz
Bit depth : 16 bits
Compression mode : Lossy
Stream size : 124 MiB (11%)
Default : Yes
Forced : No

Log - x264

raw [info]: 1024x576p 1:1 @ 25/1 fps (cfr)
x264 [info]: using SAR=1/1
x264 [info]: using cpu capabilities: MMX2 SSE2Fast SSSE3 FastShuffle SSE4.2 AVX XOP FMA4 FMA3 SSEMisalign LZCNT BMI1 TBM
x264 [info]: profile High, level 4.0
x264 [info]: frame I:973 Avg QP:17.91 size: 66183
x264 [info]: frame P:30094 Avg QP:20.65 size: 19153
x264 [info]: frame B:104121 Avg QP:22.80 size: 4374
x264 [info]: consecutive B-frames: 1.7% 2.6% 10.9% 19.9% 19.6% 41.8% 2.8% 0.4% 0.3%
x264 [info]: mb I I16..4: 7.8% 70.3% 21.9%
x264 [info]: mb P I16..4: 1.7% 8.1% 1.1% P16..4: 51.4% 21.6% 12.3% 0.0% 0.0% skip: 3.8%
x264 [info]: mb B I16..4: 0.2% 0.5% 0.1% B16..8: 38.3% 5.7% 1.4% direct: 3.4% skip:50.6% L0:39.0% L1:51.3% BI: 9.7%
x264 [info]: 8x8 transform intra:72.5% inter:59.3%
x264 [info]: direct mvs spatial:98.1% temporal:1.9%
x264 [info]: coded y,uvDC,uvAC intra: 79.0% 75.0% 44.8% inter: 16.1% 17.2% 6.3%
x264 [info]: i16 v,h,dc,p: 21% 33% 7% 39%
x264 [info]: i8 v,h,dc,ddl,ddr,vr,hd,vl,hu: 15% 12% 7% 8% 11% 13% 12% 12% 12%
x264 [info]: i4 v,h,dc,ddl,ddr,vr,hd,vl,hu: 17% 11% 4% 8% 13% 14% 12% 10% 11%
x264 [info]: i8c dc,h,v,p: 39% 24% 22% 15%
x264 [info]: Weighted P-Frames: Y:2.4% UV:1.1%
x264 [info]: ref P L0: 50.4% 12.1% 18.2% 4.6% 4.5% 2.8% 2.9% 1.4% 1.6% 1.4% 0.2% 0.0%
x264 [info]: ref B L0: 83.9% 9.1% 2.9% 1.4% 0.9% 0.8% 0.6% 0.3% 0.2%
x264 [info]: ref B L1: 94.7% 5.3%
x264 [info]: kb/s:1621.77

Скриншоты

Other forum [Profile] [PM]
Display posts from previous:    
Reply to topic

The time now is: Today 23:39

All times are GMT + 3 Hours



You cannot post new topics in this forum
You cannot reply to topics in this forum
You cannot edit your posts in this forum
You cannot delete your posts in this forum
You cannot vote in polls in this forum
You cannot attach files in this forum
You cannot download files in this forum