Today is a free download without charge Download

Родной человек (Игорь Штернберг) [2012, Россия, Мелодрама, HDTV 1080i]

Reply to topic
 
Author
Message

Omen ®

Longevity: 8 years 5 months

Posts: 181087

Торрент-статистика

Post 15-Apr-2013 01:29

[Quote]

Родной человек
Страна: Россия
Жанр: Мелодрама
Год выпуска: 2012
Продолжительность: 01:30:32
Cубтитры: нет
Режиссер: Игорь Штернберг
В ролях: Александра Афанасьева-Шевчук, Дмитрий Ратомский, Анатолий Котенёв, Максим Кречетов, Святослав Астрамович, Татьяна Бовкалова, Елена Дубровская, Тамара Миронова, Светлана Никифорова, Вероника Пляшкевич, Даниил Радевич, Олег Ткачев, Рита Удовенко, Матвей Шкуратов и другие.
Описание: Порой случайное знакомство меняет всю прожитую жизнь. Алла и Коля были влюблены друг в друга с босоногого деревенского детства. В знак своей любви они даже, как взрослые, "обручились" - обменялись колечками. Шло время. Их любовь только крепла, несмотря на недоброжелательство Колиной родни. Казалось, их счастью уже ничто не может помешать. Но однажды Алла познакомилась с Игорем. И безобидный выезд за город резко изменил всю их дальнейшую жизнь...
Сэмпл: http://multi-up.com/854662
Тип релиза: HDTV 1080i
Контейнер: TS
Релиз -

Запись чистая. Без посторонних надписей. Выкладывается, как есть.
Качество видео: HDTV 1080i
Формат видео: TS
Видео: AVC, 1920x1080 (16:9), 25 fps, 7853 Kbps, 0.151 bit/pixel
Аудио: MPEG Audio, 48 kHz, stereo, 192 Kbps

MediaInfo

GeneralID : 1 (0x1)Complete name : J:\ВЫКЛАДКА\HDTV\Фильмы\Родной человек (2012, Мелодрама, HDTV) (MYDIMKA).tsFormat : MPEG-TSFile size : 5.34 GiBDuration : 1h 30mnOverall bit rate mode : VariableOverall bit rate : 8 446 Kbps
VideoID : 2911 (0xB5F)Menu ID : 1 (0x1)Format : AVCFormat/Info : Advanced Video CodecFormat profile : [email protected] settings, CABAC : YesFormat settings, ReFrames : 3 framesCodec ID : 27Duration : 1h 30mnBit rate : 7 835 KbpsWidth : 1 920 pixelsHeight : 1 080 pixelsDisplay aspect ratio : 16:9Frame rate : 25.000 fpsColor space : YUVChroma subsampling : 4:2:0Bit depth : 8 bitsScan type : MBAFFBits/(Pixel*Frame) : 0.151Stream size : 4.96 GiB (93%)
AudioID : 2912 (0xB60)Menu ID : 1 (0x1)Format : MPEG AudioFormat version : Version 1Format profile : Layer 2Codec ID : 3Duration : 1h 30mnBit rate mode : ConstantBit rate : 192 KbpsChannel(s) : 2 channelsSampling rate : 48.0 KHzCompression mode : LossyStream size : 124 MiB (2%)Language : Russian

Скриншот c названием фильма

Скриншоты


Other forum [Profile] [PM]
Similar theme
Forum Topic Author Torrent Replies Last Post
./templates/default/images/folder_dl.gif Медицина и Здоровье Генрих Ужегов | Сокровищница народной медицины [6 книг] (2016) [FB2] Omen
1 | 0

0 | 1383

5

2015-03-10 18:01
Omen Latest
Display posts from previous:    
Reply to topic

The time now is: Today 11:53

All times are GMT + 3 Hours



You cannot post new topics in this forum
You cannot reply to topics in this forum
You cannot edit your posts in this forum
You cannot delete your posts in this forum
You cannot vote in polls in this forum
You cannot attach files in this forum
You cannot download files in this forum