Today is a free download without charge Download

Ментовские войны 7 [1 серии из 16] (2013) WEB-DLRip [Обновляемая]

Reply to topic
 
Author
Message

UndegraundMen ®

Longevity: 8 years 9 months

Posts: 25145

Торрент-статистика

Post 15-Apr-2013 00:03

[Quote]

Ментовские войны-7 [1-3 серии из 16] (2013) WEB-DLRip [Обновляемая]- Русское название: Ментовские войны-7
Выпущено: Россия, "Студия Панорама", "Форвард-фильм"
Год выпуска: 2013
Жанр: Боевик, криминал, детектив
Перевод: Оригинал (Русский)
Субтитры: Отсутствуют

Дата российской премьеры: 13 апреля 2013
Режиссер: Сергей Раевский
Актеры: Александр Устюгов, Дмитрий Быковский-Ромашов, Всеволод Цурило, Андрей Родимов, Андрей Кузнецов, Светлана Смирнова-Кацагаджиева, Александр Марушев, Руслан Ибрагимов, Мария Иванова, Владимир Студеновский, Дмитрий Лебедев, Янина Соколовская, Евгения Устюгова, Сергей Лысов, Юлия Левакова, Роман Громадский, Марина Игнатова, Александр Лисицын, Анатолий Узденский, Олег Вебер, Ольга Иванова, Сергей Федоров, Павел Юлку, Антон Виноградов, Алексей Лысенко, Дмитрий Белов, Даниил Эйдлин, Ольга Иванова, Татьяна Гончарова, Сергей Бубнов, Владимир Крылов, Мурад Султаниязов, Сергей Магиленич, Александр Сорокин, Максим Крупский, Иван Бровин, Игорь Бессчастнов, Роман Жилкин, Андрей Бордухаев, Полина Дудкина
Описание фильма:
В новых сериях сотрудники отдела по расследованию умышленных убийств ГУ МВД Санкт-Петербурга, уже аттестованные как полицейские, продолжат борьбу с наиболее опасными представителями криминальной изнанки города и будут вынуждены вновь столкнуться с так называемыми "оборотнями в погонах", которые способны причинить не меньший вред, чем закоренелые преступники.
Продолжительность: 3 х ~ 00:46:03 серия
Качество видео: WEB-DLRip
Видеокодек: Xvid
Битрейт видео: ~1470 Kbit/s
Размер кадра: 720 x 400
Аудиокодек: AC3, 2.0
Битрейт аудио: 192 Kbit/sВнимание! Раздача ведётся путём добавления новых серий

Внимание! Раздача ведётся путём добавления новых серий. Описание обновления торрента.

Внимание! Раздача ведётся путём добавления новых серий; при каждом добавлении создётся новый торрент. Чтобы начать докачку новой серии, пользователям необходимо сделать следующее:
(1) остановить скачивание,
(2) удалить старый торрент у себя из клиента (старые серии удалять не надо),
(3) скачать новый торрент и запустить его у себя в клиенте вместо старого, при этом указать клиенту путь в старую папку куда и должно происходить скачивание новых серий.
Ваш клиент при этом должен произвести хеширование (проверку) старой папки (если не производит сам - помогите ему сделать это), и будет докачивать только те серии которых у вас ещё нет. Старые серии при этом не удаляются, а продолжают раздаваться!
Eсли вы уже удалили старые серии, то предотвратить повторную закачку старых серий можно, отжав галочку в соответсвующих местах при запуске нового торрента. По возможности, желательно не удалять старые серии как можно дольше чтобы релизёр не столько продолжал раздавать старые серии, а смог сконцентрироваться на новых.

MediaInfo

Общее
Полное имя : D:\Торренты\Ментовские войны-7. 2013. SATRip\Ментовские войны-7.01.avi
Формат : AVI
Формат/Информация : Audio Video Interleave
Размер файла : 551 Мбайт
Продолжительность : 46 м.
Общий поток : 1672 Кбит/сек
Видео
Идентификатор : 0
Формат : MPEG-4 Visual
Профиль формата : Advanced [email protected]
Параметр BVOP формата : 1
Параметр QPel формата : Нет
Параметр GMC формата : Без точки перехода
Параметр матрицы формата : Default (H.263)
Режим смешивания : Сжатый битовый поток
Идентификатор кодека : XVID
Идентификатор кодека/Подсказка : XviD
Продолжительность : 46 м.
Битрейт : 1470 Кбит/сек
Ширина : 720 пикс.
Высота : 400 пикс.
Соотношение сторон : 16:9
Частота кадров : 25,000 кадр/сек
Цветовое пространство : YUV
Подвыборка цветности : 4:2:0
Битовая глубина : 8 бит
Тип развёртки : Прогрессивная
Метод сжатия : С потерями
Бит/(Пиксели*Кадры) : 0.204
Размер потока : 484 Мбайт (88%)
Библиотека кодирования : XviD 64
Аудио
Идентификатор : 1
Формат : AC-3
Формат/Информация : Audio Coding 3
Расширение режима : CM (complete main)
Идентификатор кодека : 2000
Продолжительность : 46 м.
Вид битрейта : Постоянный
Битрейт : 192 Кбит/сек
Каналы : 2 канала
Расположение каналов : Front: L R
Частота : 48,0 КГц
Битовая глубина : 16 бит
Метод сжатия : С потерями
Размер потока : 63,3 Мбайт (11%)
Выравнивание : Соединение по промежуткам
Продолжительность промежутка : 40 мс. (1,00 видеокадр)
Время предзагрузки промежутка : 512 ms
Скриншоты:
           
Other forum [Profile] [PM]
Display posts from previous:    
Reply to topic

The time now is: Today 22:47

All times are GMT + 3 Hours



You cannot post new topics in this forum
You cannot reply to topics in this forum
You cannot edit your posts in this forum
You cannot delete your posts in this forum
You cannot vote in polls in this forum
You cannot attach files in this forum
You cannot download files in this forum