Today is a free download without charge Download

Ментовские войны (2013) (Сезон 7, серии 1 из 16) HDTV [1080i] (обновляемая)

Reply to topic
 
Author
Message

UndegraundMen ®

Longevity: 8 years 9 months

Posts: 25145

Торрент-статистика

Post 15-Apr-2013 00:03

[Quote]

Ментовские войны (2013) (Сезон 7, серии 1 из 16) HDTV [1080i] (обновляемая)- Русское название: Ментовские войны
Производство: "Студия Панорама", "Форвард-фильм"
Год выпуска: 2013
Жанр: Боевик, Криминал, Детектив
Режиссер: Сергей Раевский, Денис Скворцов
Актеры: Александр Устюгов, Дмитрий Быковский-Ромашов, Всеволод Цурило, Андрей Родимов, Андрей Кузнецов, Светлана Смирнова-Кацагаджиева, Александр Марушев, Руслан Ибрагимов, Мария Иванова, Владимир Студеновский, Дмитрий Лебедев, Янина Соколовская, Евгения Устюгова, Сергей Лысов, Юлия Левакова, Роман Громадский, Марина Игнатова, Александр Лисицын, Анатолий Узденский, Елизавета Ковалева, Олег Вебер, Ольга Иванова, Сергей Федоров, Павел Юлку, Антон Виноградов, Алексей Лысенко, Дмитрий Белов, Даниил Эйдлин, Ольга Иванова, Татьяна Гончарова, Сергей Бубнов, Владимир Крылов, Мурад Султаниязов, Сергей Магиленич, Александр Сорокин, Максим Крупский, Иван Бровин, Игорь Бессчастнов, Роман Жилкин, Роман Синицын, Андрей Бордухаев, Полина Дудкина, Михаил Сливников, Станислав Казаку, Артем Цыпин
Описание фильма:
В новых сериях сотрудники отдела по расследованию умышленных убийств ГУ МВД Санкт-Петербурга, уже аттестованные как полицейские, продолжат борьбу с наиболее опасными представителями криминальной изнанки города и будут вынуждены вновь столкнуться с так называемыми «оборотнями в погонах», которые способны причинить не меньший вред, чем закоренелые преступники.

Продолжительность: ~ 00:46:00
Качество видео: HDTV
Видеокодек: AVC/H.264
Битрейт видео: ~5000 Kbps
Размер кадра: 1920x1080
Аудиокодек: AC3
Битрейт аудио: 2 ch, 192 Kbps

MediaInfo:

Код:
Общее
Уникальный идентификатор : 218492710216761946297463698650063478893 (0xA4602A52A710509D8F5F2361DF20A06D)
Полное имя : G:\DOWNLOADS\Ментовские войны (7 сезон) 2013 HDTV 1080\Ментовские войны (7 сезон) - 01 серия.mkv
Формат : Matroska
Версия формата : Version 2
Размер файла : 1,65 Гбайт
Продолжительность : 46 м.
Общий поток : 5119 Кбит/сек
Дата кодирования : UTC 2013-04-14 16:51:16
Программа кодирования : mkvmerge v5.6.0 ('Kenya Kane') built on Jun 29 2012 15:01:44
Библиотека кодирования : libebml v1.2.3 + libmatroska v1.3.0
Видео
Идентификатор : 1
Формат : AVC
Формат/Информация : Advanced Video Codec
Профиль формата : [url=mailto:[email protected]][email protected][/url]
Параметр CABAC формата : Да
Параметр ReFrames формата : 6 кадров
Идентификатор кодека : V_MPEG4/ISO/AVC
Продолжительность : 46 м.
Битрейт : 5000 Кбит/сек
Ширина : 1920 пикселей
Высота : 1080 пикселей
Соотношение сторон : 16:9
Режим частоты кадров : Постоянный
Частота кадров : 25,000 кадров/сек
Цветовое пространство : YUV
Субдискретизация насыщенности : 4:2:0
Битовая глубина : 8 бит
Тип развёртки : Прогрессивная
Бит/(Пиксели*Кадры) : 0.096
Размер потока : 1,55 Гбайт (94%)
Библиотека кодирования : x264 core 120
Настройки программы : cabac=1 / ref=6 / deblock=1:0:0 / analyse=0x3:0x133 / me=hex / subme=9 / psy=1 / psy_rd=1.00:0.00 / mixed_ref=1 / me_range=16 / chroma_me=1 / trellis=1 / 8x8dct=1 / cqm=0 / deadzone=21,11 / fast_pskip=1 / chroma_qp_offset=-2 / threads=18 / sliced_threads=0 / nr=0 / decimate=1 / interlaced=0 / bluray_compat=0 / constrained_intra=0 / bframes=3 / b_pyramid=0 / b_adapt=1 / b_bias=0 / direct=3 / weightb=1 / open_gop=0 / weightp=2 / keyint=25 / keyint_min=13 / scenecut=40 / intra_refresh=0 / rc_lookahead=25 / rc=abr / mbtree=1 / bitrate=5000 / ratetol=1.0 / qcomp=0.60 / qpmin=3 / qpmax=69 / qpstep=4 / ip_ratio=1.40 / aq=1:1.00
Язык : Russian
Default : Да
Forced : Нет
Основные цвета : BT.709
Характеристики трансфера : BT.709
Коэффициенты матрицы : BT.709
Аудио
Идентификатор : 2
Формат : AC-3
Формат/Информация : Audio Coding 3
Расширение режима : CM (complete main)
Параметр Endianness формата : Big
Идентификатор кодека : A_AC3
Продолжительность : 46 м.
Вид битрейта : Постоянный
Битрейт : 192 Кбит/сек
Каналы : 2 канала
Расположение каналов : Front: L R
Частота : 48,0 КГц
Битовая глубина : 16 бит
Метод сжатия : С потерями
Размер потока : 63,3 Мбайт (4%)
Default : Да
Forced : Нет

Описание обновления торрента

Внимание! Раздача ведётся путём добавления новых серий; при каждом добавлении создётся новый торрент. Чтобы начать докачку новой серии, пользователям необходимо сделать следующее:
1. Остановить скачивание.
2. Удалить старый торрент у себя из клиента (старые серии удалять не надо).
3. Скачать новый торрент и запустить его у себя в клиенте вместо старого, при этом указать клиенту путь в старую папку куда и должно происходить скачивание новых серий.
Ваш клиент при этом должен произвести хеширование (проверку) старой папки (если не производит сам - помогите ему сделать это), и будет докачивать только те серии которых у вас ещё нет. Старые серии при этом не удаляются, а продолжают раздаваться!
Eсли вы уже удалили старые серии, то предотвратить повторную закачку старых серий можно, отжав галочку в соответсвующих местах при запуске нового торрента. По возможности, желательно не удалять старые серии как можно дольше чтобы релизёр не столько продолжал раздавать старые серии, а смог сконцентрироваться на новых.
Скриншоты:
Other forum [Profile] [PM]
Display posts from previous:    
Reply to topic

The time now is: Today 06:09

All times are GMT + 3 Hours



You cannot post new topics in this forum
You cannot reply to topics in this forum
You cannot edit your posts in this forum
You cannot delete your posts in this forum
You cannot vote in polls in this forum
You cannot attach files in this forum
You cannot download files in this forum