Today is a free download without charge Download

Iron Man: Rise of Technovore / Железный Человек: Восстание Техновора [2013, MV] WEBRip 400p rus

Reply to topic
 
Author
Message

UndegraundMen ®

Longevity: 8 years 11 months

Posts: 25145

Торрент-статистика

Post 15-Apr-2013 00:03

[Quote]

アイアンマン ライズ・オブ・テクノヴォア / Iron Man: Rise of Technovore / Железный Человек: Восстание Техновора- Год выпуска: 2013
Тип: OVA
Жанр: фантастика, боевик
Производство: Marvel Animation
Дата мировой премьеры: 16 апреля 2013
Режиссер: Хироши Хамасаки
Актеры: Норман Ридус, Клэр Грант, Мэттью Мерсер
Описание фильма:
Миллионер, изобретатель любимец женщин, Энтони Эдвард Старк однажды был похищен террористами и был вынужден работать над созданием оружия. Выбирать не приходилось: либо ты работаешь на похитителей, либо тебя убивают. Однако Энтони сумел обмануть их, и вместе с оружием создал секретное средство для побега - костюм Железного человека. Энтони Старк ещё не подозревал, что костюм превратит его в настоящего героя.

Продолжительность: 01:28:25
Качество видео: BDrip
Видеокодек: Xvid
Битрейт видео: ~1761 Kb/s
Размер кадра: 720x400
Аудиокодек: AC3 5.1
Битрейт аудио: 448 Kb/s
Перевод: Одноголосый любительский закадровый
Субтитры: Отсутствуют
Релиз группа:

MediaInfo:

Код:
Общее
Полное имя                               : F:\Фильмы\Железный Человек Восстание Техновора\Iron.Man.Rise.of.Technovore.2013.L1.WEBRip.avi
Формат                                   : AVI
Формат/Информация                        : Audio Video Interleave
Размер файла                             : 1,37 Гбайт
Продолжительность                        : 1 ч. 28 м.
Общий поток                              : 2218 Кбит/сек
Программа кодирования                    : VirtualDubMod 1.5.10.2 (build 2542/release)
Библиотека кодирования                   : VirtualDubMod build 2542/release
Видео
Идентификатор                            : 0
Формат                                   : MPEG-4 Visual
Профиль формата                          : Advanced [email protected]
Параметр BVOP формата                    : 2
Параметр QPel формата                    : Нет
Параметр GMC формата                     : Без точки перехода
Параметр матрицы формата                 : Default (MPEG)
Режим смешивания                         : Сжатый битовый поток
Идентификатор кодека                     : XVID
Идентификатор кодека/Подсказка           : XviD
Продолжительность                        : 1 ч. 28 м.
Битрейт                                  : 1761 Кбит/сек
Ширина                                   : 720 пикселей
Высота                                   : 400 пикселей
Соотношение сторон                       : 16:9
Частота кадров                           : 23,976 кадра/сек
Цветовое пространство                    : YUV
Субдискретизация насыщенности            : 4:2:0
Битовая глубина                          : 8 бит
Тип развёртки                            : Прогрессивная
Метод сжатия                             : С потерями
Бит/(Пиксели*Кадры)                      : 0.255
Размер потока                            : 1,09 Гбайт (79%)
Библиотека кодирования                   : XviD 1.2.1 (UTC 2008-12-04)
Аудио
Идентификатор                            : 1
Формат                                   : AC-3
Формат/Информация                        : Audio Coding 3
Расширение режима                        : CM (complete main)
Параметр Endianness формата              : Big
Идентификатор кодека                     : 2000
Продолжительность                        : 1 ч. 28 м.
Вид битрейта                             : Постоянный
Битрейт                                  : 448 Кбит/сек
Каналы                                   : 6 каналов
Расположение каналов                     : Front: L C R, Side: L R, LFE
Частота                                  : 44,1 КГц
Битовая глубина                          : 16 бит
Метод сжатия                             : С потерями
Размер потока                            : 283 Мбайт (20%)
Выравнивание                             : Разделение по промежуткам
Продолжительность промежутка             : 42  мс. (1,00 видеокадр)
Время предзагрузки промежутка            : 500  мс.
Скриншоты:
       
Other forum [Profile] [PM]
Display posts from previous:    
Reply to topic

The time now is: Today 17:06

All times are GMT + 3 Hours



You cannot post new topics in this forum
You cannot reply to topics in this forum
You cannot edit your posts in this forum
You cannot delete your posts in this forum
You cannot vote in polls in this forum
You cannot attach files in this forum
You cannot download files in this forum