Today is a free download without charge Download

Задания особой важности. Операция «Тайфун» / Серии: 1- из 4 (Петр Амелин) [2013, Военный фильм, приключения, DVB]

Reply to topic
 
Author
Message

Omen ®

Longevity: 9 years 1 month

Posts: 181086

Торрент-статистика

Post 14-Apr-2013 17:22

[Quote]

Задания особой важности. Операция «Тайфун»
Год выпуска: 2013
Производство: ГРИН-ФИЛЬМ, "ПРИОР Продакшн"
Жанр: Военный фильм, приключения
Продолжительность: ~0:44:00 серия
Субтитры: Украинские (вшитые)
Режиссёр: Петр Амелин
В ролях: Эдуард Трухменёв, Мария Куликова, Сергей Баталов, Иван Дубровский, Данила Воропаев, Елена Радевич, Михаил Елисеев, Андрей Аксёнов, Андрей Павловец, Александр Ленин, Александр Балсанов, Андрей Аверков, Виктор Выбриенко, Игорь Добряков, Татьяна Захарова, Александр Рязанцев, Сергей Лысов, Александр Русинов, Гелий Сысоев, Марина Дуксова, Алексей Гайшун, Роман Грибков, Игорь Опарин (II), Алексей Байдаков, Владимир Меренков, Андрей Егоров (IV)
Описание: Великая Отечественная война. Группа советских разведчиков-диверсантов выполняет задания особой важности. Первое задание - уничтожить стратегические склады горючего, захваченные немцами во время стремительного наступления.

Качество: DVB
Формат: MPEG
Видео кодек: MPEG2
Аудио кодек: MPEG1
Видео: MPEG2 Video 768х576 @ 704x576 (4:3) 25.00fps ~2583 Kbps (0.32 bit/pixel)
Аудио: MPEG Audio 48000Hz 2 channels 192 Кбит/сек
Сторонней рекламы нет!

MediaInfo

ОбщееПолное имя : D:\Задание особой важности_Операция Тайфун DVB\Задание особой важности_Операция Тайфун_01_серия_DVB_by_Серый1779.mpgФормат : MPEG-PSРазмер файла : 829 МбайтПродолжительность : 40 м.Общий поток : 2832 Кбит/сек
ВидеоИдентификатор : 224 (0xE0)Формат : MPEG VideoВерсия формата : Version 2Профиль формата : [email protected]Параметр BVOP формата : НетПараметр матрицы формата : По умолчаниюПараметры GOP формата : M=1, N=28Продолжительность : 40 м.Вид битрейта : ПеременныйБитрейт : 2583 Кбит/секНоминальный битрейт : 15,0 Мбит/секШирина : 704 пикс.Высота : 576 пикс.Соотношение сторон : 4:3Частота кадров : 25,000 кадр/секСтандарт вещания : PALЦветовое пространство : YUVПодвыборка цветности : 4:2:0Битовая глубина : 8 битТип развёртки : ЧересстрочнаяПорядок развёртки : Верхнее поле первоеМетод сжатия : С потерямиБит/(Пиксели*Кадры) : 0.255Размер потока : 757 Мбайт (91%)
АудиоИдентификатор : 192 (0xC0)Формат : MPEG AudioВерсия формата : Version 1Профиль формата : Layer 2Продолжительность : 40 м.Вид битрейта : ПостоянныйБитрейт : 192 Кбит/секКаналы : 2 каналаЧастота : 48,0 КГцМетод сжатия : С потерямиРазмер потока : 56,2 Мбайт (7%)

Внимание ! Раздача ведётся путём добавления новых серий

Внимание! Раздача ведётся путём добавления новых серий; при каждом добавлении создётся новый торрент. Чтобы начать докачку новой серии, пользователям необходимо сделать следующее:
(1) остановить скачивание,
(2) удалить старый торрент у себя из клиента (старые серии удалять не надо),
(3) скачать новый торрент и запустить его у себя в клиенте вместо старого, при этом указать клиенту путь в старую папку куда и должно происходить скачивание новых серий.
Ваш клиент при этом должен произвести хеширование (проверку) старой папки (если не производит сам - помогите ему сделать это), и будет докачивать только те серии которых у вас ещё нет. Старые серии при этом не удаляются, а продолжают раздаваться!
Eсли вы уже удалили старые серии, то предотвратить повторную закачку старых серий можно, отжав галочку в соответсвующих местах при запуске нового торрента. По возможности, желательно не удалять старые серии как можно дольше чтобы релизёр не столько продолжал раздавать старые серии, а смог сконцентрироваться на новых.
ВНИМАНИЕ! ТОРРЕНТ ПЕРЕЗАЛИТ! ДОБАВЛЕНА 1-ая СЕРИИ!

Скриншоты

Other forum [Profile] [PM]
Display posts from previous:    
Reply to topic

The time now is: Today 23:34

All times are GMT + 3 Hours



You cannot post new topics in this forum
You cannot reply to topics in this forum
You cannot edit your posts in this forum
You cannot delete your posts in this forum
You cannot vote in polls in this forum
You cannot attach files in this forum
You cannot download files in this forum