Today is a free download without charge Download

Катерина. Другая жизнь / Сезон: 4 / Серии: 1-8 из 8 (Андрей Щербинин) [2012, Криминальная мелодрама, HDTVRip 720р]

Reply to topic
 
Author
Message

Omen ®

Longevity: 9 years

Posts: 181086

Торрент-статистика

Post 14-Apr-2013 17:22

[Quote]

Катерина. Другая жизнь Год выпуска: 2012
Производство: Россия, Студия "Панорама"
Жанр: Криминальная мелодрама
Продолжительность: 8 x ~ 00:43:00
Субтитры: Отсутствуют
Режиссёр: Андрей Щербинин
В ролях: Ирина Розанова, Александр Блок, Алиса Седова, Сергей Маркеев, Сергей Лосев, Мария Валешная, Ирина Цветкова, Александр Кудренко, Светлана Смирнова, Сергей Уманов, Геннадий Смирнов, Виталий Салтыков, Владимир Крылов, Дарья Юргенс, Вадим Гущин, Юлия Морозова и другие...
Описание: Лидии Викторовне Гориной, ставшей матерью для двух приёмных детей, приходится столкнуться с новыми жизненными испытаниями. И на сей раз под ударом оказалась её главная надежда и опора - любимый супруг Борис Одинцов. Решив начать новое дело - строительство коттеджного посёлка на месте разрушенных бывшим мэром домов, Борис Сергеевич неожиданно разворошил осиное гнездо. Старый недоброжелатель Одинцова Щетинин с помощью своих высоких покровителей добивается смещения Бориса Сергеевича с поста директора и берёт контроль над фирмой в свои руки. Оказавшись на улице после ареста мужа, Горина начинает борьбу за свободу Одинцова и будущее свой семьи...

Качество: HDTVRip 720р
Формат: MKV
Видео кодек: H.264
Аудио кодек: AC3
Видео: MPEG-4 AVC Video, 1280 х 720 (16:9), 25,000 кадров/сек, 3850 Кбит/сек, 0.167 бит/пиксель
Аудио: Audio Coding 3, 48,0 КГц, 192 Кбит/сек, 2 канала (Front: L R)
Доп. информация:
  • Rip записал и подготовил Nikolspup, от

MI

Общее
Уникальный идентификатор : 178810011860379055216342240765059239536 (0x86858E3D19A27D9499AB6F7F28C38E70)
Полное имя : D:\Катерина. Другая жизнь 720p\Katerina-4.Drugaja.jizn.(4.seriya.iz.8).2013.HDTVRip.(720p).mkv
Формат : Matroska
Версия формата : Version 2
Размер файла : 1,22 Гбайт
Продолжительность : 44 м.
Общий поток : 3975 Кбит/сек
Дата кодирования : UTC 2013-04-05 02:56:17
Программа кодирования : mkvmerge v4.9.1 ('Ich will') сборка от Jul 11 2011 23:53:15
Библиотека кодирования : libebml v1.2.1 + libmatroska v1.1.1
Видео
Идентификатор : 1
Формат : AVC
Формат/Информация : Advanced Video Codec
Профиль формата : [email protected]
Параметр CABAC формата : Да
Параметр ReFrames формата : 5 кадров
Идентификатор кодека : V_MPEG4/ISO/AVC
Продолжительность : 44 м.
Битрейт : 3850 Кбит/сек
Ширина : 1280 пикселей
Высота : 720 пикселей
Соотношение сторон : 16:9
Режим частоты кадров : Постоянный
Частота кадров : 25,000 кадров/сек
Цветовое пространство : YUV
Субдискретизация насыщенности : 4:2:0
Битовая глубина : 8 бит
Тип развёртки : Прогрессивная
Бит/(Пиксели*Кадры) : 0.167
Размер потока : 1,14 Гбайт (93%)
Библиотека кодирования : x264 core 116 r2044 392e762
Настройки программы : cabac=1 / ref=5 / deblock=1:-1:-1 / analyse=0x3:0x113 / me=umh / subme=10 / psy=1 / psy_rd=0.00:0.10 / mixed_ref=1 / me_range=32 / chroma_me=1 / trellis=2 / 8x8dct=1 / cqm=0 / deadzone=21,11 / fast_pskip=0 / chroma_qp_offset=-1 / threads=12 / sliced_threads=0 / nr=0 / decimate=1 / interlaced=0 / bluray_compat=0 / constrained_intra=0 / bframes=5 / b_pyramid=2 / b_adapt=1 / b_bias=0 / direct=1 / weightb=1 / open_gop=0 / weightp=2 / keyint=250 / keyint_min=25 / scenecut=40 / intra_refresh=0 / rc_lookahead=40 / rc=abr / mbtree=1 / bitrate=3850 / ratetol=1.0 / qcomp=0.60 / qpmin=0 / qpmax=69 / qpstep=4 / ip_ratio=1.40 / aq=1:1.00
Default : Да
Forced : Нет
Аудио
Идентификатор : 2
Формат : AC-3
Формат/Информация : Audio Coding 3
Расширение режима : CM (complete main)
Параметр Endianness формата : Big
Идентификатор кодека : A_AC3
Продолжительность : 44 м.
Вид битрейта : Постоянный
Битрейт : 192 Кбит/сек
Каналы : 2 канала
Расположение каналов : Front: L R
Частота : 48,0 КГц
Битовая глубина : 16 бит
Метод сжатия : С потерями
Размер потока : 60,5 Мбайт (5%)
Default : Да
Forced : Нет

Скриншоты

Other forum [Profile] [PM]
Display posts from previous:    
Reply to topic

The time now is: Today 17:04

All times are GMT + 3 Hours



You cannot post new topics in this forum
You cannot reply to topics in this forum
You cannot edit your posts in this forum
You cannot delete your posts in this forum
You cannot vote in polls in this forum
You cannot attach files in this forum
You cannot download files in this forum