Today is a free download without charge Download

Королевский роман / En kongelig affære / A Royal Affair (Николай Арсел / Nikolaj Arcel) [2012, Дания, Швеция, Чехия, драма, мелодрама, история, BDRip 1080p] MVO (R5), Original (Dan) + Sub (Dan, Eng)

Reply to topic
 
Author
Message

Omen ®

Longevity: 8 years 5 months

Posts: 181087

Торрент-статистика

Post 14-Apr-2013 17:22

[Quote]

Королевский роман / En kongelig affære / A Royal Affair
Страна: Дания, Швеция, Чехия
Студия: DR TV, Film i Väst, Sirena Film, Sveriges Television (SVT), Trollhättan Film AB, Zentropa Entertainments
Жанр: драма, мелодрама, история
Год выпуска: 2012
Продолжительность: 02:12:07
Субтитры: датские, английские, болгарские, финские, итальянские, норвежские, польские, испанские (отключаемые, softsub (SRT), немецкие (вшитые на английскую речь в самом начале фильма)
Английские хардсабы отсутствуют
Главы: есть
Перевод: Профессиональный (многоголосый закадровый) R5
Оригинальная аудиодорожка: датская
Режиссер: Николай Арсел / Nikolaj Arcel
В ролях: Алисия Викандер, Мадс Миккелсен, Миккель Фольсгаард, Трине Дюрхольм, Давид Денсик, Томас В. Габриэльссон, Сайрон Бьорк Мелвиль, Бент Мейдинг, Харриет Уолтер, Лаура Бро, Сорен Мэллинг, Якоб Ульрик Ломанн, Сорен Спаннинг, Фредерик Кристиан Йохансен, Джон Мартинес, Розалинд Мюнстер, Вилльям Йенк Нильсен, Джулия Вентцель Олсен, Франк Рубэк, Кеннет М. Кристенсен
Описание: Это история, происходившая в Датском королевстве в середине 18-го столетия. Юная королева Каролина-Матильда ненавидит своего супруга - психически больного короля Кристиана VII, который предпочитает проституток ее обществу. Появление в свите короля немецкого врача-вольнодумца Иоганна Фридриха Струэнзе вносит серьезные коррективы не только в жизнь Каролины, влюбляющейся в красавца доктора, но и в жизнь датчан - Струэнзе оказывает серьезное влияние на короля, который постепенно преобразовывает правительство. К сожалению, роман королевы и врача обречен, поскольку мачеха Кристиана не в восторге от перемен в Копенгагене.

Релиз: fanatus
Качество видео: BDRip 1080p
Исходник: Blu-ray disc [GER Transfer]
Контейнер: MKV
Видео: MPEG-4 AVC, 12000 kbps , 1920x816 (2.35:1), 25.000 fps, 0.306 bit/pixel
Аудио 1: русский (DTS, 6 ch, 48 kHz, 1 510 Kbps) MVO (R5)
Аудио 2: датский (DTS, 6 ch, 48 kHz, 1 510 Kbps) оригинал

MediaInfo

General
Unique ID : 173586445903046559977070058609363956502 (0x8297888D96390E01B0883910969CB316)
Complete name : D:\Korolevskij.roman.2012.x264.BDRip.1080p.fanatus.mkv
Format : Matroska
Format version : Version 2
File size : 13.9 GiB
Duration : 2h 12mn
Overall bit rate : 15.0 Mbps
Movie name : En kongelig affære (2012) - fanatus
Encoded date : UTC 2013-01-03 15:17:10
Writing application : mkvmerge v3.4.0 ('Rapunzel') сборка от May 15 2010 09:38:20
Writing library : libebml v0.8.0 + libmatroska v0.9.0
Video
ID : 1
Format : AVC
Format/Info : Advanced Video Codec
Format profile : [email protected]
Format settings, CABAC : Yes
Format settings, ReFrames : 5 frames
Codec ID : V_MPEG4/ISO/AVC
Duration : 2h 12mn
Bit rate : 12.0 Mbps
Width : 1 920 pixels
Height : 816 pixels
Display aspect ratio : 2.35:1
Frame rate : 25.000 fps
Color space : YUV
Chroma subsampling : 4:2:0
Bit depth : 8 bits
Scan type : Progressive
Bits/(Pixel*Frame) : 0.306
Stream size : 10.8 GiB (78%)
Title : En kongelig affære (2012)
Writing library : x264 core 129 r2230 1cffe9f
Encoding settings : cabac=1 / ref=5 / deblock=1:-3:-3 / analyse=0x3:0x113 / me=tesa / subme=11 / psy=1 / psy_rd=1.00:0.02 / mixed_ref=1 / me_range=32 / chroma_me=1 / trellis=2 / 8x8dct=1 / cqm=0 / deadzone=21,11 / fast_pskip=0 / chroma_qp_offset=-3 / threads=16 / lookahead_threads=2 / sliced_threads=0 / nr=0 / decimate=0 / interlaced=0 / bluray_compat=0 / constrained_intra=0 / bframes=7 / b_pyramid=2 / b_adapt=2 / b_bias=0 / direct=3 / weightb=1 / open_gop=0 / weightp=2 / keyint=250 / keyint_min=25 / scenecut=40 / intra_refresh=0 / rc_lookahead=40 / rc=2pass / mbtree=0 / bitrate=12000 / ratetol=1.0 / qcomp=0.60 / qpmin=0 / qpmax=69 / qpstep=4 / cplxblur=20.0 / qblur=0.5 / vbv_maxrate=50000 / vbv_bufsize=62500 / nal_hrd=none / ip_ratio=1.40 / pb_ratio=1.30 / aq=2:1.00
Language : Danish
Default : Yes
Forced : No
Color primaries : BT.709-5, BT.1361, IEC 61966-2-4, SMPTE RP177
Transfer characteristics : BT.709-5, BT.1361
Matrix coefficients : BT.709-5, BT.1361, IEC 61966-2-4 709, SMPTE RP177
Audio #1
ID : 2
Format : DTS
Format/Info : Digital Theater Systems
Codec ID : A_DTS
Duration : 2h 12mn
Bit rate mode : Constant
Bit rate : 1 510 Kbps
Channel(s) : 6 channels
Channel positions : Front: L C R, Side: L R, LFE
Sampling rate : 48.0 KHz
Bit depth : 24 bits
Compression mode : Lossy
Stream size : 1.39 GiB (10%)
Title : MVO (R5)
Language : Russian
Default : Yes
Forced : Yes
Audio #2
ID : 3
Format : DTS
Format/Info : Digital Theater Systems
Codec ID : A_DTS
Duration : 2h 12mn
Bit rate mode : Constant
Bit rate : 1 510 Kbps
Channel(s) : 6 channels
Channel positions : Front: L C R, Side: L R, LFE
Sampling rate : 48.0 KHz
Bit depth : 24 bits
Compression mode : Lossy
Stream size : 1.39 GiB (10%)
Title : Original
Language : Danish
Default : No
Forced : No
Text #1
ID : 4
Format : UTF-8
Codec ID : S_TEXT/UTF8
Codec ID/Info : UTF-8 Plain Text
Language : Danish
Default : No
Forced : No
Text #2
ID : 5
Format : UTF-8
Codec ID : S_TEXT/UTF8
Codec ID/Info : UTF-8 Plain Text
Language : English
Default : No
Forced : No
Text #3
ID : 6
Format : UTF-8
Codec ID : S_TEXT/UTF8
Codec ID/Info : UTF-8 Plain Text
Language : Bulgarian
Default : No
Forced : No
Text #4
ID : 7
Format : UTF-8
Codec ID : S_TEXT/UTF8
Codec ID/Info : UTF-8 Plain Text
Language : Finnish
Default : No
Forced : No
Text #5
ID : 8
Format : UTF-8
Codec ID : S_TEXT/UTF8
Codec ID/Info : UTF-8 Plain Text
Language : Italian
Default : No
Forced : No
Text #6
ID : 9
Format : UTF-8
Codec ID : S_TEXT/UTF8
Codec ID/Info : UTF-8 Plain Text
Language : Norwegian
Default : No
Forced : No
Text #7
ID : 10
Format : UTF-8
Codec ID : S_TEXT/UTF8
Codec ID/Info : UTF-8 Plain Text
Language : Polish
Default : No
Forced : No
Text #8
ID : 11
Format : UTF-8
Codec ID : S_TEXT/UTF8
Codec ID/Info : UTF-8 Plain Text
Language : Spanish
Default : No
Forced : No
Menu
00:00:00.000 : :Chapter 01
00:12:47.000 : :Chapter 02
00:18:04.120 : :Chapter 03
00:39:58.639 : :Chapter 04
00:47:42.480 : :Chapter 05
00:58:54.519 : :Chapter 06
01:11:02.160 : :Chapter 07
01:22:40.760 : :Chapter 08
01:32:01.199 : :Chapter 09
01:40:20.239 : :Chapter 10
01:53:58.480 : :Chapter 11
02:08:35.800 : :Chapter 12

x264 [info]

-[NoImage] raw [info]: 1920x816p 1:1 @ 25/1 fps (cfr)
-[NoImage] x264 [info]: using SAR=1/1
-[NoImage] x264 [info]: using cpu capabilities: MMX2 SSE2Fast FastShuffle SSEMisalign LZCNT
-[NoImage] x264 [info]: profile High, level 4.1
-[NoImage]
-[NoImage] x264 [info]: frame I:1472 Avg QP:17.18 size:214255
-[NoImage] x264 [info]: frame P:37159 Avg QP:19.53 size:111390
-[NoImage] x264 [info]: frame B:159544 Avg QP:21.75 size: 46571
-[NoImage] x264 [info]: consecutive B-frames: 1.4% 1.2% 3.4% 6.6% 10.2% 69.1% 7.5% 0.6%
-[NoImage] x264 [info]: mb I I16..4: 15.3% 63.9% 20.8%
-[NoImage] x264 [info]: mb P I16..4: 3.3% 18.0% 1.2% P16..4: 25.7% 32.6% 13.2% 0.0% 0.0% skip: 6.1%
-[NoImage] x264 [info]: mb B I16..4: 0.2% 1.2% 0.0% B16..8: 46.2% 21.4% 4.6% direct: 7.5% skip:18.8% L0:49.4% L1:43.4% BI: 7.2%
-[NoImage] x264 [info]: 8x8 transform intra:78.2% inter:47.1%
-[NoImage] x264 [info]: direct mvs spatial:99.0% temporal:1.0%
-[NoImage] x264 [info]: coded y,uvDC,uvAC intra: 91.3% 77.7% 48.6% inter: 47.3% 29.3% 6.8%
-[NoImage] x264 [info]: i16 v,h,dc,p: 26% 10% 26% 38%
-[NoImage] x264 [info]: i8 v,h,dc,ddl,ddr,vr,hd,vl,hu: 7% 6% 11% 11% 15% 13% 13% 12% 12%
-[NoImage] x264 [info]: i4 v,h,dc,ddl,ddr,vr,hd,vl,hu: 9% 7% 18% 8% 13% 11% 11% 10% 12%
-[NoImage] x264 [info]: i8c dc,h,v,p: 41% 22% 20% 16%
-[NoImage] x264 [info]: Weighted P-Frames: Y:1.1% UV:0.4%
-[NoImage] x264 [info]: ref P L0: 45.2% 9.6% 24.3% 11.0% 9.6% 0.4% 0.0%
-[NoImage] x264 [info]: ref B L0: 81.4% 12.4% 4.8% 1.4%
-[NoImage] x264 [info]: ref B L1: 95.1% 4.9%
-[NoImage] x264 [info]: kb/s:11994.17
-[NoImage] encoded 198175 frames, 1.83 fps, 11994.17 kb/s

Скриншот c названием фильма

Сравнение с исходником

Source vs Rip




Other forum [Profile] [PM]
Similar theme
Forum Topic Author Torrent Replies Last Post
./templates/default/images/folder_dl.gif Техническая и научно-популярная литература Ю.П.Семенов (ред.) | Ракетно-космическая корпорация «Энергия» имени С. П. Королева на рубеже двух веков [2001] [DJVU] UndegraundMen
1 | 0

0 | 760

0

2013-03-04 22:23
UndegraundMen Latest
./templates/default/images/folder_dl.gif Техническая и научно-популярная литература Сергей Патянин | Суперэсминцы Черчилля. Самые боевые корабли Королевского флота [2012] [PDF] sashau
1 | 0

0 | 749

0

2013-05-11 14:43
sashau Latest
./templates/default/images/folder_dl.gif Зарубежное кино (HD Video) Властелин Колец: Возвращение Короля / The Lord of The Rings: Return of The King (Питер Джексон) [2003 г., боевик, приключения, фэнтези, экранизация, BDRip-HEVC 2160p, HDR] Dagel(tm)
1 | 0

0 | 1009

0

2021-01-25 18:53
Dagel(tm) Latest
Display posts from previous:    
Reply to topic

The time now is: Today 01:23

All times are GMT + 3 Hours



You cannot post new topics in this forum
You cannot reply to topics in this forum
You cannot edit your posts in this forum
You cannot delete your posts in this forum
You cannot vote in polls in this forum
You cannot attach files in this forum
You cannot download files in this forum