Today is a free download without charge Download

Шут Балакирев (Галина Баринова) [1993 г., мультфильм, DVB-AVC]

Reply to topic
 
Author
Message

Omen ®

Longevity: 7 years 11 months

Posts: 181087

Торрент-статистика

Post 14-Apr-2013 01:10

[Quote]

Шут Балакирев
Жанр: мультфильм
Год выпуска:1993
Продолжительность: 00:16:22
Режиссёр: Галина Баринова
Описание: По мотивам русских сказок и анекдотов про царя Петра и его шута. Музыка XVIII в в исполнении ансамбля "Мадригал".
Доп. информация:

Трансляция спутникового канала:
Качество видео: DVB
Формат видео: MPEG-TS
Видео: MPEG4 Video (H264), [email protected] (4:3), анаморф, 25 fps, 6900 kbps
Аудио: MPEG Audio, 2 сh, 48 kHz, 192 kbps

MediaInfo

General
ID : 1
Complete name : D:\Шут Балакирев. (1993)_DVB by SLuMeP.ts
Format : MPEG-TS
File size : 874 MiB
Duration : 16mn 22s
Overall bit rate : 7 461 Kbps
Video
ID : 2271 (0x8DF)
Menu ID : 1 (0x1)
Format : AVC
Format/Info : Advanced Video Codec
Format profile : [email protected]
Format settings, CABAC : Yes
Format settings, ReFrames : 3 frames
Codec ID : 27
Duration : 16mn 22s
Bit rate : 6 898 Kbps
Width : 720 pixels
Height : 576 pixels
Display aspect ratio : 4:3
Frame rate : 25.000 fps
Standard : Component
Color space : YUV
Chroma subsampling : 4:2:0
Bit depth : 8 bits
Scan type : Interlaced
Scan order : Top Field First
Bits/(Pixel*Frame) : 0.665
Stream size : 808 MiB (92%)
Color primaries : BT.470-6 System B, BT.470-6 System G, BT.601-6 625, BT.1358 625, BT.1700 625 PAL, BT.1700 625 SECAM
Transfer characteristics : BT.470-6 System B, BT.470-6 System G
Matrix coefficients : BT.470-6 System B, BT.470-6 System G, BT.601-6 625, BT.1358 625, BT.1700 625 PAL, BT.1700 625 SECAM, IEC 61966-2-4 601
Audio
ID : 2272 (0x8E0)
Menu ID : 1 (0x1)
Format : MPEG Audio
Format version : Version 1
Format profile : Layer 2
Codec ID : 3
Duration : 16mn 22s
Bit rate mode : Constant
Bit rate : 192 Kbps
Channel(s) : 2 channels
Sampling rate : 48.0 KHz
Stream size : 22.5 MiB (3%)
Language : Russian

Скриншоты


[
Other forum [Profile] [PM]
Display posts from previous:    
Reply to topic

The time now is: Today 20:08

All times are GMT + 3 Hours



You cannot post new topics in this forum
You cannot reply to topics in this forum
You cannot edit your posts in this forum
You cannot delete your posts in this forum
You cannot vote in polls in this forum
You cannot attach files in this forum
You cannot download files in this forum