Today is a free download without charge Download

Зази в метро / Zazie in the Subway / Zazie dans le metro (Луи Маль) [1960 г., фэнтези, комедия, BDRip720p]

Reply to topic
 
Author
Message

Delia ®

Gender:

Longevity: 9 years 6 months

Posts: 1821

Торрент-статистика

Post 17-Jul-2011 10:39

[Quote]

Зази в метро / Zazie dans le metro«Louis Malle's Comedy With No Holds Barred !»--
Год выпуска: 1960
Страна: Франция , Италия
Жанр: фэнтези, комедия, ...
Продолжительность: 01:32:47
Перевод: Профессиональный (двухголосый закадровый)
Субтитры: Russian (VobSub)
Режиссер: Луи Маль
Сценарий: Луи Маль, Жан-Поль Рапно, Раймон Кено
Продюсер: Луи Маль
Оператор: Анри Рэши
Композитор: Фьоренцо Карпи, Андре Понтен
Художник: Бернард Эвейн, Марк Делшниц
Монтаж: Кену Пелтье- В ролях: Катрин Демонжо (Catherine Demongeot), Филипп Нуаре (Philippe Noiret), Юбер Дешан (Hubert Deschamps), Карла Марлье (Carla Marlier), Анни Фрателлини (Annie Fratellini), Витторио Каприоли (Vittorio Caprioli), Жак Дюфило (Jacques Dufilho), Ивонн Клеш (Yvonne Clech), Одетт Пике (Odette Piquet), Николя Батай (Nicolas Bataille), Antoine Roblot, Марк Делшниц (Marc Doelnitz), Жак Гёзи (Jacques Gheusi), Кристин Ховард (Christine Howard), Луис ЛаЛэйнн (Louis Lalanne), Литтл Бара (Little Bara), Жорж Фэй (Georges Faye), De Lannoy, Поль Валли (Paul Vally), Жан-Ив Бовье (Jean-Yves Bouvier)
Описание: Сумасбродные приключения 11-летней провинциальной девчонки Зази в Париже, которая желала во что бы то ни стало увидеть метро, но так и не попала в него за свой недолгий срок пребывания во французской столице. Зази приезжает в Париж вместе с матерью, которая сразу отправляется к своему любовнику, оставив дочь на попечение дяди Габриэля.Тот показывает девочке город и даже забирается с ней на Эйфелеву башню. Но Зази ничего не интересует, кроме метро, а оно закрыто, как назло, из-за забастовки. И тогда юная проказница вовлекает в безумную погоню чуть ли не всех прохожих и устраивает на улицах гигантскую автомобильную пробку.Всё заканчивается фантасмагорической дракой в кафе. Рано утром уставшую и спящую девочку её дядя увозит на вокзал именно на метро — ведь забастовка кончилась. В самую последнюю минуту прибегает к поезду и мать Зази. А этот «сорванец в платьице» уезжает из столицы, так и не увидев метро.-- --Качество: BDRip720p
Формат: MKV
Видео кодек: H.264 (AVC)
Аудио кодеk: AC3
Видео: 960x720 (4:3), 23.976 fps, AVC, 6 232 Kbps
Аудио: AC3, 192 Kbps, 48.0 KHz, 1 ch RUS MVO
Аудио #2: AC3, 320 Kbps, 48.0 KHz, 1 ch FRA

МедиаИнфо

Код:
General
Complete name                    : Zazie dans le metro(1960)BDRip720p-F.HD.mkv
Format                           : Matroska
File size                        : 4.37 GiB
Duration                         : 1h 32mn
Overall bit rate                 : 6 749 Kbps
Encoded date                     : UTC 2012-04-01 15:44:12
Writing application              : mkvmerge v5.4.0 ('Piper') built on Mar 10 2012 13:34:39
Writing library                  : libebml v1.2.3 + libmatroska v1.3.0
Video
ID                               : 1
Format                           : AVC
Format/Info                      : Advanced Video Codec
Format profile                   : [email protected]
Format settings, CABAC           : Yes
Format settings, ReFrames        : 10 frames
Muxing mode                      : Container [email protected]
Codec ID                         : V_MPEG4/ISO/AVC
Duration                         : 1h 32mn
Bit rate                         : 6 232 Kbps
Width                            : 960 pixels
Height                           : 720 pixels
Display aspect ratio             : 4:3
Frame rate                       : 23.976 fps
Color space                      : YUV
Chroma subsampling               : 4:2:0
Bit depth                        : 8 bits
Scan type                        : Progressive
Bits/(Pixel*Frame)               : 0.376
Stream size                      : 3.96 GiB (90%)
Title                            : FREEISLAND
Writing library                  : x264 core 122 r2184 5c85e0a
Encoding settings                : cabac=1 / ref=10 / deblock=1:-2:-2 / analyse=0x3:0x113 / me=umh / subme=10 / psy=1 / psy_rd=1.00:0.15 / mixed_ref=1 / me_range=32 / chroma_me=1 / trellis=2 / 8x8dct=1 / cqm=0 / deadzone=21,11 / fast_pskip=0 / chroma_qp_offset=-3 / threads=6 / sliced_threads=0 / nr=0 / decimate=1 / interlaced=0 / bluray_compat=0 / constrained_intra=0 / bframes=6 / b_pyramid=2 / b_adapt=2 / b_bias=0 / direct=1 / weightb=1 / open_gop=1 / weightp=2 / keyint=240 / keyint_min=23 / scenecut=40 / intra_refresh=0 / rc_lookahead=50 / rc=2pass / mbtree=1 / bitrate=6232 / ratetol=1.0 / qcomp=0.60 / qpmin=0 / qpmax=69 / qpstep=4 / cplxblur=20.0 / qblur=0.5 / ip_ratio=1.40 / aq=1:1.00
Audio #1
ID                               : 2
Format                           : AC-3
Format/Info                      : Audio Coding 3
Mode extension                   : CM (complete main)
Codec ID                         : A_AC3
Duration                         : 1h 32mn
Bit rate mode                    : Constant
Bit rate                         : 192 Kbps
Channel(s)                       : 1 channel
Channel positions                : Front: C
Sampling rate                    : 48.0 KHz
Bit depth                        : 16 bits
Stream size                      : 127 MiB (3%)
Language                         : Russian
Audio #2
ID                               : 3
Format                           : AC-3
Format/Info                      : Audio Coding 3
Mode extension                   : CM (complete main)
Codec ID                         : A_AC3
Duration                         : 1h 32mn
Bit rate mode                    : Constant
Bit rate                         : 320 Kbps
Channel(s)                       : 1 channel
Channel positions                : Front: C
Sampling rate                    : 48.0 KHz
Bit depth                        : 16 bits
Stream size                      : 212 MiB (5%)
Language                         : French
Text
ID                               : 4
Format                           : VobSub
Codec ID                         : S_VOBSUB
Codec ID/Info                    : The same subtitle format used on DVDs
Language                         : Russian
Menu
00:00:00.000                     : en:Chapter 01
00:04:15.171                     : en:Chapter 02
00:05:58.649                     : en:Chapter 03
00:08:31.844                     : en:Chapter 04
00:15:40.022                     : en:Chapter 05
00:21:55.689                     : en:Chapter 06
00:25:24.022                     : en:Chapter 07
00:29:33.146                     : en:Chapter 08
00:35:35.800                     : en:Chapter 09
00:42:59.952                     : en:Chapter 10
00:51:26.123                     : en:Chapter 11
00:55:43.089                     : en:Chapter 12
01:01:39.654                     : en:Chapter 13
01:08:11.921                     : en:Chapter 14
01:11:03.091                     : en:Chapter 15
01:15:35.697                     : en:Chapter 16
01:20:10.555                     : en:Chapter 17
01:27:43.383                     : en:Chapter 18
01:30:02.772                     : en:Chapter 19
01:32:47.353                     : en:Chapter 20


Скриншоты

     
     

_________________
Человек – это канат, натянутый между животным и сверхчеловеком, – канат над пропастью.
В человеке ценно то, что он мост, а не цель. Фридрих Ницше


Last edited by Delia on 2011-08-26 17:54; edited 2 times in total
Other forum [Profile] [PM]
Display posts from previous:    
Reply to topic

The time now is: Today 18:20

All times are GMT + 3 Hours



You cannot post new topics in this forum
You cannot reply to topics in this forum
You cannot edit your posts in this forum
You cannot delete your posts in this forum
You cannot vote in polls in this forum
You cannot attach files in this forum
You cannot download files in this forum