Today is a free download without charge Download

Даша [4 серии из 4] (2013) SATRip

Reply to topic
 
Author
Message

UndegraundMen ®

Longevity: 8 years 9 months

Posts: 25145

Торрент-статистика

Post 14-Apr-2013 00:02

[Quote]

Даша [4 серии из 4] (2013) SATRip- Русское название: Даша
Выпущено: Россия
Год выпуска: 2013
Жанр: Мелодрама
Перевод: Оригинал (Русский)
Субтитры: Отсутствуют

Дата российской премьеры: 13 апреля 2013
Режиссер: Антон Азаров
Актеры: Александр Тютин, Андрей Барило, Дарья Егорова, Артем Фадеев, Игорь Писный, Любава Грешнова
Описание фильма:
Семнадцатилетняя воспитанница провинциального детского дома Даша становится жертвой богатого мошенника Богданова. Чтобы уберечь свое имущество от конфискации, он выдает Дашу за свою внебрачную дочь, которую разыскал, чтобы загладить прошлые грехи и дать дочери престижное заграничное образование. На самом деле Богданов хочет переписать на девочку свое имущество и избавиться от нее.
Только он не учел, что у Даши волевой, свободолюбивый характер: девушка, которая выросла в детском доме, привыкла принимать решения самостоятельно. Она не согласна гнить в рабстве из-за прихоти проворовавшегося негодяя. И теперь богатая невеста Даша будет бороться за свою жизнь и счастье, которое она заслужила.
Продолжительность: 4 х ~ 00:44:01 серия
Качество видео: SATRip
Видеокодек: DivX 5
Битрейт видео: ~1600 Kbit/s
Размер кадра: 704 х 400
Аудиокодек: MP3, 2.0
Битрейт аудио: 128 Kbit/s

MediaInfo

Общее
Полное имя : D:\Торренты\Даша. 2013. SATRip\Даша.01.avi
Формат : AVI
Формат/Информация : Audio Video Interleave
Размер файла : 550 Мбайт
Продолжительность : 44 м.
Общий поток : 1745 Кбит/сек
Видео
Идентификатор : 0
Формат : MPEG-4 Visual
Параметр BVOP формата : Да
Параметр QPel формата : Нет
Параметр GMC формата : Без точки перехода
Параметр матрицы формата : Default (H.263)
Идентификатор кодека : DX50
Идентификатор кодека/Подсказка : DivX 5
Продолжительность : 44 м.
Битрейт : 1600 Кбит/сек
Ширина : 704 пикс.
Высота : 400 пикс.
Соотношение сторон : 16:9
Частота кадров : 25,000 кадр/сек
Цветовое пространство : YUV
Подвыборка цветности : 4:2:0
Битовая глубина : 8 бит
Тип развёртки : Прогрессивная
Метод сжатия : С потерями
Бит/(Пиксели*Кадры) : 0.227
Размер потока : 504 Мбайт (92%)
Библиотека кодирования : Intel(R) MPEG-4 encoder based on Intel(R) IPP 6.1 build 137.20[6.1.137.763]
Аудио
Идентификатор : 1
Формат : MPEG Audio
Версия формата : Version 1
Профиль формата : Layer 3
Режим : Joint stereo
Расширение режима : MS Stereo
Идентификатор кодека : 55
Идентификатор кодека/Подсказка : MP3
Продолжительность : 44 м.
Вид битрейта : Постоянный
Битрейт : 128 Кбит/сек
Каналы : 2 канала
Частота : 48,0 КГц
Метод сжатия : С потерями
Размер потока : 40,3 Мбайт (7%)
Выравнивание : Соединение по промежуткам
Продолжительность промежутка : 24 мс. (0,60 видеокадр)
Библиотека кодирования : LAME3.98.2
Скриншоты:
           
Время раздачи: 24/7 по возможности
Other forum [Profile] [PM]
Display posts from previous:    
Reply to topic

The time now is: Today 22:49

All times are GMT + 3 Hours



You cannot post new topics in this forum
You cannot reply to topics in this forum
You cannot edit your posts in this forum
You cannot delete your posts in this forum
You cannot vote in polls in this forum
You cannot attach files in this forum
You cannot download files in this forum