Today is a free download without charge Download

Реальные пацаны . Московский сезон / 5 сезон / Серии 1-5 (91-92) из ?? (??) (Жанна Кадникова) [2013, Комедия, SATRip]

Reply to topic
 
Author
Message

Omen ®

Longevity: 9 years 1 month

Posts: 181086

Торрент-статистика

Post 13-Apr-2013 21:02

[Quote]

Реальные пацаны . Московский сезон
Год выпуска: 2013
Производство: "Гуд Стори Медиа"
Жанр: Комедийный телесериал
Режиссёр: Жанна Кадникова
В ролях:
Николай Наумов, Зоя Бербер, Антон Богданов, Владимир Селиванов (III), Станислав Тляшев, Мария Скорницкая, Валентина Мазунина, Марина Федункив, Армен Бежанян, Игорь Ознобихин, Алексей Базанов, Анастасия Плоскова, Олег Верещагин, Сергей Ершов, Татьяна Ронзина, Любовь Рудометова, Юлия Гришнина, Михаил Чуднов, Дмитрий Белоцерковский, Дмитрий Наумов (II), Юрий Богомолов, Василий Бичев, Анна Семенович, Аскольд Запашный, Эдгард Запашный и др.Группа желает всем приятного просмотра!Описание:
Собираясь в Москву, Колян грезил о высшем образовании, хорошей работе и больших деньгах. А вышло все наоборот. Вместо института нудные тренинги в должности продавца-консультанта. Вместо больших денег большие долги, а вместо счастливой семейной жизни богатый ухажер, вьющийся вокруг жены Леры. А тут еще и Вован с Антохой без предупреждения пожаловали в гости, а вслед за ними и вообще вся Пермь. В общем, любой другой бы давно развернулся и уехал. Но там, где нормальные люди бегут от проблем, Колян мчится им навстречу.
Продолжительность: 00:23:00
РингтоныВсе раздачи сериалаКачество: SatRip
Формат: AVI
Видео кодек: Xvid
Аудио кодек: MP3
Видео: 704x400 (1.76:1), 25 fps, XviD build 64 ~1476 kbps avg, 0.21 bit/pixel
Аудио: 48 kHz, MPEG Layer 3, 2 ch, ~128.00 kbps avg
Релиз: & &

Внимание. Раздача ведётся путём добавления новых серий

Внимание! Раздача ведётся путём добавления новых серий; при каждом добавлении создётся новый торрент. Чтобы начать докачку новой серии, пользователям необходимо сделать следующее:
(1) остановить скачивание,
(2) удалить старый торрент у себя из клиента (старые серии удалять не надо),
(3) скачать новый торрент и запустить его у себя в клиенте вместо старого, при этом указать клиенту путь в старую папку куда и должно происходить скачивание новых серий.
Ваш клиент при этом должен произвести хеширование (проверку) старой папки (если не производит сам - помогите ему сделать это), и будет докачивать только те серии которых у вас ещё нет. Старые серии при этом не удаляются, а продолжают раздаваться!
Eсли вы уже удалили старые серии, то предотвратить повторную закачку старых серий можно, отжав галочку в соответсвующих местах при запуске нового торрента. По возможности, желательно не удалять старые серии как можно дольше чтобы релизёр не столько продолжал раздавать старые серии, а смог сконцентрироваться на новых

DVD Cover

MI

Общее
Полное имя : D:\Торренты\Реальные_Пацаны_5_Сезон_SatRip_by_Дрек_R.G Сериалы\Реальные_Пацаны_5_Сезон_01_SatRip_by_Дрек_R.G Сериалы.avi
Формат : AVI
Формат/Информация : Audio Video Interleave
Размер файла : 279 Мбайт
Продолжительность : 24 м.
Общий поток : 1615 Кбит/сек
Программа кодирования : VirtualDubMod 1.5.10.3 | www.virtualdub-fr.org || (build 2550/release)
Библиотека кодирования : VirtualDubMod build 2550/release
Видео
Идентификатор : 0
Формат : MPEG-4 Visual
Профиль формата : Advanced [email protected]
Параметр BVOP формата : 2
Параметр QPel формата : Нет
Параметр GMC формата : Без точки перехода
Параметр матрицы формата : Default (H.263)
Идентификатор кодека : XVID
Идентификатор кодека/Подсказка : XviD
Продолжительность : 24 м.
Битрейт : 1477 Кбит/сек
Ширина : 704 пикселя
Высота : 400 пикселей
Соотношение сторон : 16:9
Частота кадров : 25,000 кадров/сек
Цветовое пространство : YUV
Субдискретизация насыщенности : 4:2:0
Битовая глубина : 8 бит
Тип развёртки : Прогрессивная
Метод сжатия : С потерями
Бит/(Пиксели*Кадры) : 0.210
Размер потока : 256 Мбайт (91%)
Библиотека кодирования : XviD 64
Аудио
Идентификатор : 1
Формат : MPEG Audio
Версия формата : Version 1
Профиль формата : Layer 3
Режим : Joint stereo
Расширение режима : MS Stereo
Идентификатор кодека : 55
Идентификатор кодека/Подсказка : MP3
Продолжительность : 24 м.
Вид битрейта : Постоянный
Битрейт : 128 Кбит/сек
Каналы : 2 канала
Частота : 48,0 КГц
Метод сжатия : С потерями
Размер потока : 22,1 Мбайт (8%)
Выравнивание : Соединение по промежуткам
Продолжительность промежутка : 40 мс. (1,00 видеокадр)
Время предзагрузки промежутка : 504 мс.
Библиотека кодирования : LAME3.99
Настройки программы : -m j -V 4 -q 2 -lowpass 17 -b 128
Other forum [Profile] [PM]
Display posts from previous:    
Reply to topic

The time now is: Today 05:36

All times are GMT + 3 Hours



You cannot post new topics in this forum
You cannot reply to topics in this forum
You cannot edit your posts in this forum
You cannot delete your posts in this forum
You cannot vote in polls in this forum
You cannot attach files in this forum
You cannot download files in this forum