Today is a free download without charge Download

Отверженные / Les Miserables (Том Хупер / Tom Hooper) [2012, Великобритания, мюзикл, драма, мелодрама, BDRemux 1080p] Dub + Sub Rus, Eng + Original Eng

Reply to topic
 
Author
Message

Omen ®

Longevity: 8 years 5 months

Posts: 181087

Торрент-статистика

Post 13-Apr-2013 21:02

[Quote]

Отверженные / Les Miserables
Страна: Великобритания
Студия: Universal Pictures, Relativity Media, Working Title Films, Cameron Mackintosh
Жанр: мюзикл, драма, мелодрама
Год выпуска: 2012
Продолжительность: 02:37:54
Перевод: Профессиональный (дублированный) R5
Cубтитры: русские 2x R5
Оригинальная аудиодорожка: английский
Режиссер: Том Хупер / Tom Hooper
В ролях: Аманда Сэйфрид, Энн Хэтэуэй, Хью Джекман, Хелена Бонем Картер, Рассел Кроу, Саша Барон Коэн, Аарон Твейт, Эдди Редмэйн
Описание: Действие развивается в начале XIX столетия. Беглый каторжник Жан Вальжан, приговоренный к тюремному заключению, вынужден долгие годы скрываться от жестокого правосудия. Инспектор парижской полиции Жавер считает его поимку делом всей своей жизни. После смерти Фантины — женщины, за судьбу которой Жан Вальжан считал себя в ответе, — единственным близким ему человеком остается ее дочь Козетта. Ради счастья девушки Жан готов на все.
Тип релиза: BDRemux 1080p
Контейнер: MKV
Видео: AVC at 25,8 Мбит/сек,1920 x 1080 (1.778) at 23.976 fps
Аудио: AC-3 at 384 Кбит/сек,6 каналов, 48,0 КГц (RUS)
Аудио 2: DTS-HD MA, 8 ch, 4797 Кбит/с),48,0 КГц, (ENG)
Формат субтитров: softsub (SRT)

MediaInfo

Общее
Полное имя : Les_Misérables.2012.BDRemux.1080p.mkv
Формат : Matroska
Версия формата : Version 4 / Version 2
Размер файла : 31,3 Гбайт
Продолжительность : 2 ч. 37 м.
Режим общего битрейта : Переменный
Общий поток : 28,4 Мбит/сек
Дата кодирования : UTC 2013-04-13 16:27:33
Программа кодирования : mkvmerge v6.1.0 ('Old Devil') built on Mar 4 2013 09:10:42
Библиотека кодирования : libebml v1.3.0 + libmatroska v1.4.0
Видео
Идентификатор : 1
Формат : AVC
Формат/Информация : Advanced Video Codec
Профиль формата : [email protected]
Параметр CABAC формата : Да
Параметр ReFrames формата : 4 кадра
Параметр GOP формата : M=3, N=12
Идентификатор кодека : V_MPEG4/ISO/AVC
Продолжительность : 2 ч. 37 м.
Вид битрейта : Переменный
Битрейт : 25,8 Мбит/сек
Максимальный битрейт : 35,0 Мбит/сек
Ширина : 1920 пикселей
Высота : 1080 пикселей
Соотношение сторон : 16:9
Режим частоты кадров : Постоянный
Частота кадров : 23,976 кадра/сек
Цветовое пространство : YUV
Субдискретизация насыщенности : 4:2:0
Битовая глубина : 8 бит
Тип развёртки : Прогрессивная
Бит/(Пиксели*Кадры) : 0.519
Размер потока : 28,5 Гбайт (91%)
Язык : English
Default : Да
Forced : Нет
Аудио #1
Идентификатор : 2
Формат : AC-3
Формат/Информация : Audio Coding 3
Расширение режима : CM (complete main)
Параметр Endianness формата : Big
Идентификатор кодека : A_AC3
Продолжительность : 2 ч. 37 м.
Вид битрейта : Постоянный
Битрейт : 384 Кбит/сек
Каналы : 6 каналов
Расположение каналов : Front: L C R, Side: L R, LFE
Частота : 48,0 КГц
Битовая глубина : 16 бит
Метод сжатия : С потерями
Размер потока : 434 Мбайт (1%)
Заголовок : R5
Язык : Russian
Default : Да
Forced : Нет
Аудио #2
Идентификатор : 3
Формат : DTS
Формат/Информация : Digital Theater Systems
Профиль формата : MA / Core
Идентификатор кодека : A_DTS
Продолжительность : 2 ч. 37 м.
Вид битрейта : Переменный
Битрейт : 1606 Кбит/сек / 1510 Кбит/сек
Каналы : 8 каналов / 6 каналов
Расположение каналов : Front: L C R, Side: L R, Back: L R, LFE / Front: L C R, Side: L R, LFE
Частота : 48,0 КГц
Битовая глубина : 24 бит
Метод сжатия : Без потерь / Lossy
Язык : English
Default : Нет
Forced : Нет
Текст #1
Идентификатор : 4
Формат : UTF-8
Идентификатор кодека : S_TEXT/UTF8
Идентификатор кодека/Информация : UTF-8 Plain Text
Язык : Russian
Default : Нет
Forced : Нет
Текст #2
Идентификатор : 5
Формат : UTF-8
Идентификатор кодека : S_TEXT/UTF8
Идентификатор кодека/Информация : UTF-8 Plain Text
Заголовок : (rus2)
Язык : Russian
Default : Нет
Forced : Нет
Текст #3
Идентификатор : 6
Формат : UTF-8
Идентификатор кодека : S_TEXT/UTF8
Идентификатор кодека/Информация : UTF-8 Plain Text
Язык : English
Default : Нет
Forced : Нет
Меню
00:00:00.000 : en:Chapter 00
00:07:22.817 : en:Chapter 01
00:14:31.996 : en:Chapter 02
00:22:22.966 : en:Chapter 03
00:31:52.619 : en:Chapter 04
00:40:13.661 : en:Chapter 05
00:45:14.294 : en:Chapter 06
00:52:43.493 : en:Chapter 07
01:00:40.845 : en:Chapter 08
01:06:41.122 : en:Chapter 09
01:15:51.088 : en:Chapter 10
01:20:21.650 : en:Chapter 11
01:27:04.344 : en:Chapter 12
01:35:34.729 : en:Chapter 13
01:42:10.290 : en:Chapter 14
01:52:20.859 : en:Chapter 15
02:03:01.082 : en:Chapter 16
02:10:09.343 : en:Chapter 17
02:21:18.178 : en:Chapter 18
02:29:41.347 : en:Chapter 19

Скриншоты

Other forum [Profile] [PM]
Display posts from previous:    
Reply to topic

The time now is: Today 12:23

All times are GMT + 3 Hours



You cannot post new topics in this forum
You cannot reply to topics in this forum
You cannot edit your posts in this forum
You cannot delete your posts in this forum
You cannot vote in polls in this forum
You cannot attach files in this forum
You cannot download files in this forum