Today is a free download without charge Download

Я нормально супер гуд / Русская дискотека / Russendisko / Russian Disco (Оливер Цигенбальг / Oliver Ziegenbalg) [2012, Германия, комедия, BDRip 1080p] MVO R5 + Original (Ger) + Sub (Rus)

Reply to topic
 
Author
Message

Omen ®

Longevity: 8 years 5 months

Posts: 181087

Торрент-статистика

Post 13-Apr-2013 12:46

[Quote]

Я нормально супер гуд / Русская дискотека / Russendisko / Russian Disco
Страна: Германия
Жанр: комедия
Год выпуска: 2012
Продолжительность: 01:40:15
Перевод: Профессиональный (многоголосый закадровый) [Лицензия]
Cубтитры: русские
Оригинальная аудиодорожка: немецкий
Режиссер: Оливер Цигенбальг / Oliver Ziegenbalg
В ролях: Маттиас Швайгхефер, Фридрих Мюке, Кристиан Фридель, Пери Баумейстер, Сюзанна Борман, Имоген Когге, Райнер Бок, Фелина Рогган, Юля Бёве, Вальдемар Кобус
Описание: Используя переломный момент в истории Восточной Европы, трое молодых людей эмигрируют летом 1990 года из России в Германию. Прибыв в Восточный Берлин, они начинают новую жизнь.
Сэмпл: http://rusfolder.com/35967098
Тип релиза: BDRip 1080p (Russendisko.German.1080p.BluRay.x264-CONFiDENT)
Контейнер: MKV
Видео: AVC, 1920x1080p (16:9), 23.976 fps, 7172 kbps, 0.144 bpp
Аудио 1: Русский AC3 5.1, 48 kHz, 384 kbps, 16 bit
Аудио 2: Немецкий DTS 5.1, 48 kHz, 1509 kbps, 24 bit
Формат субтитров: softsub (SRT)

MediaInfo

Общее
Уникальный идентификатор : 203998784396723541607106023898586537005 (0x9978BC9B922ACDA888E9E4B27E2FDC2D)
Полное имя : Ja.normalno.super.gud.2012.P.BDRip.1080p.mkv
Формат : Matroska
Версия формата : Version 4 / Version 2
Размер файла : 6,48 Гбайт
Продолжительность : 1 ч. 40 м.
Общий поток : 9249 Кбит/сек
Название фильма : Russendisko (2012)
Дата кодирования : UTC 2013-04-12 19:53:08
Программа кодирования : mkvmerge v6.1.0 ('Old Devil') built on Mar 2 2013 14:32:37
Библиотека кодирования : libebml v1.3.0 + libmatroska v1.4.0
Видео
Идентификатор : 1
Формат : AVC
Формат/Информация : Advanced Video Codec
Профиль формата : [email protected]
Параметр CABAC формата : Да
Параметр ReFrames формата : 4 кадра
Идентификатор кодека : V_MPEG4/ISO/AVC
Продолжительность : 1 ч. 40 м.
Битрейт : 7172 Кбит/сек
Ширина : 1920 пикселей
Высота : 1080 пикселей
Соотношение сторон : 16:9
Режим частоты кадров : Постоянный
Частота кадров : 23,976 кадра/сек
Цветовое пространство : YUV
Субдискретизация насыщенности : 4:2:0
Битовая глубина : 8 бит
Тип развёртки : Прогрессивная
Бит/(Пиксели*Кадры) : 0.144
Размер потока : 5,02 Гбайт (78%)
Заголовок : 1080p
Библиотека кодирования : x264 core 128 r2216 198a7ea
Настройки программы : cabac=1 / ref=4 / deblock=1:-1:-1 / analyse=0x3:0x133 / me=umh / subme=7 / psy=1 / psy_rd=1.00:0.15 / mixed_ref=1 / me_range=16 / chroma_me=1 / trellis=1 / 8x8dct=1 / cqm=0 / deadzone=21,11 / fast_pskip=0 / chroma_qp_offset=-3 / threads=12 / lookahead_threads=2 / sliced_threads=0 / nr=0 / decimate=1 / interlaced=0 / bluray_compat=0 / constrained_intra=0 / bframes=3 / b_pyramid=2 / b_adapt=1 / b_bias=0 / direct=3 / weightb=1 / open_gop=0 / weightp=2 / keyint=240 / keyint_min=23 / scenecut=40 / intra_refresh=0 / rc_lookahead=40 / rc=crf / mbtree=1 / crf=20.0 / qcomp=0.60 / qpmin=0 / qpmax=69 / qpstep=4 / ip_ratio=1.40 / aq=1:1.00
Default : Да
Forced : Нет
Аудио #1
Идентификатор : 2
Формат : AC-3
Формат/Информация : Audio Coding 3
Расширение режима : CM (complete main)
Параметр Endianness формата : Big
Идентификатор кодека : A_AC3
Продолжительность : 1 ч. 40 м.
Вид битрейта : Постоянный
Битрейт : 384 Кбит/сек
Каналы : 6 каналов
Расположение каналов : Front: L C R, Side: L R, LFE
Частота : 48,0 КГц
Битовая глубина : 16 бит
Метод сжатия : С потерями
Размер потока : 275 Мбайт (4%)
Заголовок : Russian
Язык : Russian
Default : Да
Forced : Нет
Аудио #2
Идентификатор : 3
Формат : DTS
Формат/Информация : Digital Theater Systems
Режим : 16
Параметр Endianness формата : Big
Идентификатор кодека : A_DTS
Продолжительность : 1 ч. 40 м.
Вид битрейта : Постоянный
Битрейт : 1509 Кбит/сек
Каналы : 6 каналов
Расположение каналов : Front: L C R, Side: L R, LFE
Частота : 48,0 КГц
Битовая глубина : 24 бит
Метод сжатия : С потерями
Размер потока : 1,06 Гбайт (16%)
Заголовок : German DTS
Язык : German
Default : Нет
Forced : Нет
Текст
Идентификатор : 4
Формат : UTF-8
Идентификатор кодека : S_TEXT/UTF8
Идентификатор кодека/Информация : UTF-8 Plain Text
Заголовок : Russian
Язык : Russian
Default : Нет
Forced : Нет
Меню
00:00:00.000 : de:00:00:00.000
00:02:25.687 : de:00:02:25.687
00:05:34.876 : de:00:05:34.876
00:10:10.360 : de:00:10:10.360
00:14:23.946 : de:00:14:23.946
00:18:47.752 : de:00:18:47.752
00:22:43.028 : de:00:22:43.028
00:29:06.078 : de:00:29:06.078
00:36:03.078 : de:00:36:03.078
00:43:38.324 : de:00:43:38.324
00:49:06.861 : de:00:49:06.861
00:57:00.751 : de:00:57:00.751
01:01:27.684 : de:01:01:27.684
01:05:21.626 : de:01:05:21.626
01:09:33.669 : de:01:09:33.669
01:15:03.290 : de:01:15:03.290
01:22:32.948 : de:01:22:32.948
01:27:49.723 : de:01:27:49.723
01:31:44.958 : de:01:31:44.958
01:34:03.805 : de:01:34:03.805

Скриншоты

Other forum [Profile] [PM]
Display posts from previous:    
Reply to topic

The time now is: Today 13:07

All times are GMT + 3 Hours



You cannot post new topics in this forum
You cannot reply to topics in this forum
You cannot edit your posts in this forum
You cannot delete your posts in this forum
You cannot vote in polls in this forum
You cannot attach files in this forum
You cannot download files in this forum