Today is a free download without charge Download

Улица греха / Scarlet Street (Фриц Ланг / Fritz Lang) [1945, США, фильм-нуар, драма, BDRip 720p] AVO (Кузнецов) + Original Eng

Reply to topic
 
Author
Message

Omen ®

Longevity: 8 years 5 months

Posts: 181087

Торрент-статистика

Post 13-Apr-2013 08:38

[Quote]

Улица греха / Scarlet Street
Страна: США
Жанр: фильм-нуар, драма
Год выпуска: 1945
Продолжительность: 01:42:09
Перевод: Авторский (одноголосый закадровый) С. Кузнецов
Cубтитры: нет
Оригинальная аудиодорожка: английский-Режиссер: Фриц Ланг / Fritz Lang
В ролях: Эдвард Дж. Робинсон, Джоан Беннетт, Дэн Дюрьи, Маргарет Линдсей, Джесс Баркер, Розалинд Иван, Артур Лофт, Чарльз Кемпер, Расселл Хикс, Сэмьюэл С. Хайндс
Описание: По роману и пьесе "предупреждение!!!" ("La Chienne") Жоржа де ла Фушардьера и Андре Муэзи-Еона.
Наивный Крис Кросс однажды на свою голову спасает очаровательную Китти от горячей руки ее неуравновешенного приятеля. Развивая их знакомство, он приглашает ее к себе и знакомит со своей коллекцией собственных произведений, благодаря чему она узнает, что он - зажиточный художник. Кто же мог знать, что Китти неспроста оказалась в нужное время и в нужном месте, а ее ухажер позволил ее от себя спасти...
IMDb || КиноПоиск-Тип релиза: BDRip 720p [LiNG]
Контейнер: MKV
Видео: H.264/AVC, 982x720 at 23.976 fps, ~8000 kbps
Аудио#1: Russian: 48 kHz, AC3, 2/0 (L,R) ch, 192.00 kbps |Авторский одноголосый, С.Кузнецов|
Аудио#2: English: 48 kHz, AC3, 2/0 (L,R) ch, 640.00 kbps
Аудио#3: English: 48 kHz, AAC-HE, 2/0 (L,R) ch, VBR |Commentary|
Сэмпл

MediaInfo

x264

x264 [info]: frame I:859 Avg QP:14.14 size:130752
x264 [info]: frame P:28344 Avg QP:16.75 size: 76700
x264 [info]: frame B:117758 Avg QP:20.37 size: 32627
x264 [info]: consecutive B-frames: 1.0% 0.4% 1.9% 18.7% 22.8% 42.6% 9.3% 3.4%
encoded 146961 frames, 4.86 fps, 7998.62 kb/s
Format : Matroska
Format version : Version 2
File size : 6.34 GiB
Duration : 1h 42mn
Overall bit rate : 8 891 Kbps
Encoded date : UTC 2013-04-13 04:39:33
Writing application : mkvmerge v5.0.1 ('Es ist Sommer') built on Nov 6 2011 16:23:40
Writing library : libebml v1.2.2 + libmatroska v1.3.0
Video
ID : 1
Format : AVC
Format/Info : Advanced Video Codec
Format profile : [email protected]
Format settings, CABAC : Yes
Format settings, ReFrames : 9 frames
Codec ID : V_MPEG4/ISO/AVC
Duration : 1h 42mn
Nominal bit rate : 8 000 Kbps
Width : 982 pixels
Height : 720 pixels
Display aspect ratio : 4:3
Frame rate : 23.976 fps
Color space : YUV
Chroma subsampling : 4:2:0
Bit depth : 8 bits
Scan type : Progressive
Bits/(Pixel*Frame) : 0.472
Writing library : x264 core 120 r2119 0637cd6
Encoding settings : cabac=1 / ref=9 / deblock=1:-3:-3 / analyse=0x3:0x133 / me=umh / subme=11 / psy=1 / psy_rd=0.90:0.00 / mixed_ref=1 / me_range=48 / chroma_me=1 / trellis=2 / 8x8dct=1 / cqm=0 / deadzone=21,11 / fast_pskip=0 / chroma_qp_offset=-2 / threads=12 / sliced_threads=0 / nr=0 / decimate=0 / interlaced=0 / bluray_compat=0 / constrained_intra=0 / bframes=7 / b_pyramid=2 / b_adapt=2 / b_bias=0 / direct=3 / weightb=1 / open_gop=0 / weightp=2 / keyint=250 / keyint_min=23 / scenecut=40 / intra_refresh=0 / rc_lookahead=40 / rc=2pass / mbtree=1 / bitrate=8000 / ratetol=1.0 / qcomp=0.60 / qpmin=0 / qpmax=69 / qpstep=4 / cplxblur=20.0 / qblur=0.5 / ip_ratio=1.40 / aq=2:0.80
Language : English
Default : Yes
Forced : No
Audio #1
ID : 2
Format : AC-3
Format/Info : Audio Coding 3
Mode extension : CM (complete main)
Codec ID : A_AC3
Duration : 1h 42mn
Bit rate mode : Constant
Bit rate : 192 Kbps
Channel(s) : 2 channels
Channel positions : Front: L R
Sampling rate : 48.0 KHz
Bit depth : 16 bits
Compression mode : Lossy
Stream size : 140 MiB (2%)
Language : Russian
Default : Yes
Forced : No
Audio #2
ID : 3
Format : AC-3
Format/Info : Audio Coding 3
Mode extension : CM (complete main)
Codec ID : A_AC3
Duration : 1h 42mn
Bit rate mode : Constant
Bit rate : 640 Kbps
Channel(s) : 2 channels
Channel positions : Front: L R
Sampling rate : 48.0 KHz
Bit depth : 16 bits
Compression mode : Lossy
Stream size : 468 MiB (7%)
Language : English
Default : No
Forced : No
Audio #3
ID : 4
Format : AAC
Format/Info : Advanced Audio Codec
Format profile : HE-AAC / LC
Codec ID : A_AAC
Duration : 1h 42mn
Channel(s) : 2 channels
Channel positions : Front: L R
Sampling rate : 48.0 KHz / 24.0 KHz
Compression mode : Lossy
Title : Commentary
Language : English
Default : No
Forced : No

Скриншоты

LiNG vs Source More screens
Other forum [Profile] [PM]
Display posts from previous:    
Reply to topic

The time now is: Today 12:19

All times are GMT + 3 Hours



You cannot post new topics in this forum
You cannot reply to topics in this forum
You cannot edit your posts in this forum
You cannot delete your posts in this forum
You cannot vote in polls in this forum
You cannot attach files in this forum
You cannot download files in this forum