Today is a free download without charge Download

Поцелуй проклятой / Kiss of the Damned (Ксан Кассаветис / Xan Cassavetes) [2012, США, драма, Web-DL 720p] VO (den904) + VO (cmert) + Original (Eng) + Subs (Rus, Eng)

Reply to topic
 
Author
Message

Omen ®

Longevity: 8 years 5 months

Posts: 181087

Торрент-статистика

Post 13-Apr-2013 00:28

[Quote]

Поцелуй проклятой / Kiss of the Damned Страна: США
Студия: Bersin Pictures, Deerjen Films, ...
Жанр: драма
Год выпуска: 2012
Продолжительность: 01:35:27
Перевод:
  • Одноголосый закадровый den904
  • Одноголосый закадровый cmert
Cубтитры: английские, русские (А. Кедров)
Оригинальная аудиодорожка: английский
Режиссер: Ксан Кассаветис / Xan Cassavetes
В ролях: Жозефин Де Ла Буме, Роксана Мескида, Майло Вентимилья, Анна Муглалис, Майкл Рапапорт, Райли Кеох, Хуан Луис Асеведо, Джей Брэннан, Джонатан Кауэтт, Тиэрни Коуплэнд
Описание:
Перед нами разворачивается любовная история между красивой вампиршей и смертным мужчиной. Долго сдерживаясь, героиня все же уступает искушению и пьет кровь любимого и не убивает его. Однако вскоре объявляется сестра вампирши, которая пытается положить конец чужеродным отношениям и спасти род вампиров от угрозы раскрытия.
- || || -Тип релиза: Web-DL 720p
Контейнер: MKV
Видео: AVC (x264), 1280x530 (2,40:1) at 23,976 fps, 3999 Кbps, 0.246 bpp
Аудио 1: AC3; 384 Kbps; CBR; 6 ch; 48 khz | VO - den904 |
Аудио 2: AC3; 192 Kbps; CBR; 2 ch; 48 khz | VO - cmert |
Аудио 3: AC3; 384 Kbps; CBR; 6 ch; 48 khz | Английский |
Формат субтитров: softsub (SRT)

Скриншоты || x264 Info || MediaInfo || Notes

Notes:

Цитата:
  • Аудио дорожка №2 взята с этой раздачи, thx: Шнык
  • Русские субтитры взяты с этой раздачи, thx: antoniolagrande
  • Про дорожку №2: из неё вычишен фоновый шум от микрофона, убран клиппинг

MediaInfo

Код:
Общее
Уникальный идентификатор                 : 192680477144316829714280249924946565190 (0x90F4E8F9E54DA4CFA1767443ADCD1846)
Полное имя                               : Поцелуй проклятой.2012.L1.720p.WEB-DL.x264-CtrlHD.mkv
Формат                                   : Matroska
Версия формата                           : Version 4 / Version 2
Размер файла                             : 3,37 Гбайт
Продолжительность                        : 1 ч. 35 м.
Общий поток                              : 5060 Кбит/сек
Название фильма                          : profile.php?mode=viewprofile&u=22488948
Дата кодирования                         : UTC 2013-04-12 15:34:20
Программа кодирования                    : mkvmerge v6.1.0 ('Old Devil') built on Mar  2 2013 14:32:37
Библиотека кодирования                   : libebml v1.3.0 + libmatroska v1.4.0
Видео
Идентификатор                            : 1
Формат                                   : AVC
Формат/Информация                        : Advanced Video Codec
Профиль формата                          : [email protected]
Параметр CABAC формата                   : Нет
Параметр ReFrames формата                : 2 кадра
Идентификатор кодека                     : V_MPEG4/ISO/AVC
Продолжительность                        : 1 ч. 35 м.
Битрейт                                  : 3999 Кбит/сек
Ширина                                   : 1280 пикселей
Высота                                   : 530 пикселей
Соотношение сторон                       : 2,40:1
Режим частоты кадров                     : Постоянный
Частота кадров                           : 23,976 кадра/сек
Цветовое пространство                    : YUV
Субдискретизация насыщенности            : 4:2:0
Битовая глубина                          : 8 бит
Тип развёртки                            : Прогрессивная
Бит/(Пиксели*Кадры)                      : 0.246
Размер потока                            : 2,67 Гбайт (79%)
Язык                                     : English
Default                                  : Да
Forced                                   : Нет
Основные цвета                           : BT.709
Характеристики трансфера                 : BT.709
Коэффициенты матрицы                     : BT.709
Аудио #1
Идентификатор                            : 2
Формат                                   : AC-3
Формат/Информация                        : Audio Coding 3
Расширение режима                        : CM (complete main)
Параметр Endianness формата              : Big
Идентификатор кодека                     : A_AC3
Продолжительность                        : 1 ч. 35 м.
Вид битрейта                             : Постоянный
Битрейт                                  : 384 Кбит/сек
Каналы                                   : 6 каналов
Расположение каналов                     : Front: L C R, Side: L R, LFE
Частота                                  : 48,0 КГц
Битовая глубина                          : 16 бит
Метод сжатия                             : С потерями
Размер потока                            : 262 Мбайт (8%)
Заголовок                                : VO [den904]
Язык                                     : Russian
Default                                  : Да
Forced                                   : Нет
Аудио #2
Идентификатор                            : 3
Формат                                   : AC-3
Формат/Информация                        : Audio Coding 3
Расширение режима                        : CM (complete main)
Параметр Endianness формата              : Big
Идентификатор кодека                     : A_AC3
Продолжительность                        : 1 ч. 35 м.
Вид битрейта                             : Постоянный
Битрейт                                  : 192 Кбит/сек
Каналы                                   : 2 канала
Расположение каналов                     : Front: L R
Частота                                  : 48,0 КГц
Битовая глубина                          : 16 бит
Метод сжатия                             : С потерями
Размер потока                            : 131 Мбайт (4%)
Заголовок                                : VO [cmert]
Язык                                     : Russian
Default                                  : Нет
Forced                                   : Нет
Аудио #3
Идентификатор                            : 4
Формат                                   : AC-3
Формат/Информация                        : Audio Coding 3
Расширение режима                        : CM (complete main)
Параметр Endianness формата              : Big
Идентификатор кодека                     : A_AC3
Продолжительность                        : 1 ч. 35 м.
Вид битрейта                             : Постоянный
Битрейт                                  : 384 Кбит/сек
Каналы                                   : 6 каналов
Расположение каналов                     : Front: L C R, Side: L R, LFE
Частота                                  : 48,0 КГц
Битовая глубина                          : 16 бит
Метод сжатия                             : С потерями
Размер потока                            : 262 Мбайт (8%)
Язык                                     : English
Default                                  : Нет
Forced                                   : Нет
Текст #1
Идентификатор                            : 5
Формат                                   : UTF-8
Идентификатор кодека                     : S_TEXT/UTF8
Идентификатор кодека/Информация          : UTF-8 Plain Text
Заголовок                                : [А. Кедров aka antoniolagrande]
Язык                                     : Russian
Default                                  : Нет
Forced                                   : Нет
Текст #2
Идентификатор                            : 6
Формат                                   : UTF-8
Идентификатор кодека                     : S_TEXT/UTF8
Идентификатор кодека/Информация          : UTF-8 Plain Text
Язык                                     : English
Default                                  : Нет
Forced                                   : Нет
Меню
00:00:00.000                             : en:Chapter 1
00:02:16.000                             : en:Chapter 2
00:11:54.000                             : en:Chapter 3
00:19:50.000                             : en:Chapter 4
00:29:31.000                             : en:Chapter 5
00:38:28.000                             : en:Chapter 6
00:49:28.000                             : en:Chapter 7
00:58:28.000                             : en:Chapter 8
01:08:02.000                             : en:Chapter 9
01:18:58.000                             : en:Chapter 10
01:29:31.000                             : en:Chapter 11
- -
Other forum [Profile] [PM]
Display posts from previous:    
Reply to topic

The time now is: Today 10:42

All times are GMT + 3 Hours



You cannot post new topics in this forum
You cannot reply to topics in this forum
You cannot edit your posts in this forum
You cannot delete your posts in this forum
You cannot vote in polls in this forum
You cannot attach files in this forum
You cannot download files in this forum