Today is a free download without charge Download

Прощай, моя королева / Les adieux à la reine / Farewell, My Queen (Бенуа Жако / Benoît Jacquot) [2012, Франция, Испания, драма, история, BDRip 720p] MVO (R5) + Original (Fre) + Sub (Eng)

Reply to topic
 
Author
Message

Omen ®

Longevity: 8 years 5 months

Posts: 181087

Торрент-статистика

Post 13-Apr-2013 00:28

[Quote]

Прощай, моя королева / Les adieux à la reine / Farewell, My Queen Страна: Франция, Испания
Студия: GMT Productions, Les Films du Lendemain, ...
Жанр: драма, история
Год выпуска: 2012
Продолжительность: 01:39:25
Перевод: Профессиональный (многоголосый закадровый) R5
Cубтитры: английские
Оригинальная аудиодорожка: французский
Режиссер: Бенуа Жако / Benoît Jacquot
В ролях: Леа Сейду, Дайан Крюгер, Виржини Ледуайен, Ноэми Львовски, Ксавье Бовуа, Мишель Робен, Жюли-Мари Парментье, Лолита Шамма, Марта Кауфман, Владимир Консиньи
Описание:
14 июля 1789 года толпы восставших взяли Бастилию, но блестящий Версаль еще пытался отстоять свое королевское великолепие на пути урагана…
Экранизация одноименного романа Шанталь Тома, написанного в форме воспоминаний Сидони Лаборде — придворной чтицы Марии-Антуанетты о 14, 15 и 16 июля 1789 года. О тех днях, когда была разрушена Бастилия и учреждена Национальная гвардия, когда началась кровавая революция и залы роскошного дворца опустели, когда свита и слуги оставили свою Королеву. Спустя 21 год, уже в Вене Агата Сидони Лаборде оглядывается назад и вспоминает…
- -Тип релиза: BDRip 720p (рип от EbP)
Контейнер: MKV
Видео: AVC (x264), 1280x548 (2,35:1) at 23,976 fps, 4979 Кbps, 0.296 bpp
Аудио 1: AC3; 384 Kbps; CBR; 6 ch; 48 khz | P, MVO - R5 |
Аудио 2: AC3; 640 Kbps; CBR; 6 ch; 48 khz | Французский |
Формат субтитров: softsub (SRT)

Скриншоты || x264 Info || MediaInfo || Notes

MediaInfo

Код:
Общее
Уникальный идентификатор                 : 174494001477659578867776541993582969700 (0x8346527F617F5DDF81FD214CB89BC364)
Полное имя                               : Прощай, моя королева.2012.P.720p.BluRay.x264-EbP.mkv
Формат                                   : Matroska
Версия формата                           : Version 4 / Version 2
Размер файла                             : 4,25 Гбайт
Продолжительность                        : 1 ч. 39 м.
Общий поток                              : 6124 Кбит/сек
Название фильма                          : profile.php?mode=viewprofile&u=22488948
Дата кодирования                         : UTC 2013-04-06 14:39:31
Программа кодирования                    : mkvmerge v6.1.0 ('Old Devil') built on Mar  2 2013 14:32:37
Библиотека кодирования                   : libebml v1.3.0 + libmatroska v1.4.0
Видео
Идентификатор                            : 1
Формат                                   : AVC
Формат/Информация                        : Advanced Video Codec
Профиль формата                          : [email protected]
Параметр CABAC формата                   : Да
Параметр ReFrames формата                : 12 кадров
Идентификатор кодека                     : V_MPEG4/ISO/AVC
Продолжительность                        : 1 ч. 39 м.
Битрейт                                  : 4979 Кбит/сек
Ширина                                   : 1280 пикселей
Высота                                   : 548 пикселей
Соотношение сторон                       : 2,35:1
Режим частоты кадров                     : Постоянный
Частота кадров                           : 23,976 кадра/сек
Цветовое пространство                    : YUV
Субдискретизация насыщенности            : 4:2:0
Битовая глубина                          : 8 бит
Тип развёртки                            : Прогрессивная
Бит/(Пиксели*Кадры)                      : 0.296
Размер потока                            : 3,46 Гбайт (81%)
Библиотека кодирования                   : x264 core 129 r2245 bc13772
Настройки программы                      : cabac=1 / ref=12 / deblock=1:-3:-3 / analyse=0x3:0x113 / me=tesa / subme=9 / psy=1 / psy_rd=0.95:0.00 / mixed_ref=1 / me_range=16 / chroma_me=1 / trellis=2 / 8x8dct=1 / cqm=0 / deadzone=21,11 / fast_pskip=0 / chroma_qp_offset=-2 / threads=12 / lookahead_threads=2 / sliced_threads=0 / nr=0 / decimate=0 / interlaced=0 / bluray_compat=0 / constrained_intra=0 / bframes=7 / b_pyramid=2 / b_adapt=2 / b_bias=0 / direct=3 / weightb=1 / open_gop=0 / weightp=2 / keyint=250 / keyint_min=23 / scenecut=40 / intra_refresh=0 / rc=crf / mbtree=0 / crf=15.5 / qcomp=0.60 / qpmin=0 / qpmax=69 / qpstep=4 / ip_ratio=1.40 / pb_ratio=1.30 / aq=1:0.70
Язык                                     : French
Default                                  : Да
Forced                                   : Нет
Коэффициенты матрицы                     : BT.709
Аудио #1
Идентификатор                            : 2
Формат                                   : AC-3
Формат/Информация                        : Audio Coding 3
Расширение режима                        : CM (complete main)
Параметр Endianness формата              : Big
Идентификатор кодека                     : A_AC3
Продолжительность                        : 1 ч. 39 м.
Вид битрейта                             : Постоянный
Битрейт                                  : 384 Кбит/сек
Каналы                                   : 6 каналов
Расположение каналов                     : Front: L C R, Side: L R, LFE
Частота                                  : 48,0 КГц
Битовая глубина                          : 16 бит
Метод сжатия                             : С потерями
Размер потока                            : 273 Мбайт (6%)
Заголовок                                : P, MVO [R5]
Язык                                     : Russian
Default                                  : Да
Forced                                   : Нет
Аудио #2
Идентификатор                            : 3
Формат                                   : AC-3
Формат/Информация                        : Audio Coding 3
Расширение режима                        : CM (complete main)
Параметр Endianness формата              : Big
Идентификатор кодека                     : A_AC3
Продолжительность                        : 1 ч. 39 м.
Вид битрейта                             : Постоянный
Битрейт                                  : 640 Кбит/сек
Каналы                                   : 6 каналов
Расположение каналов                     : Front: L C R, Side: L R, LFE
Частота                                  : 48,0 КГц
Битовая глубина                          : 16 бит
Метод сжатия                             : С потерями
Размер потока                            : 455 Мбайт (10%)
Язык                                     : French
Default                                  : Нет
Forced                                   : Нет
Текст
Идентификатор                            : 4
Формат                                   : UTF-8
Идентификатор кодека                     : S_TEXT/UTF8
Идентификатор кодека/Информация          : UTF-8 Plain Text
Язык                                     : English
Default                                  : Нет
Forced                                   : Нет
Меню
00:00:00.000                             : en:The Reader Of The Queen
00:05:53.770                             : en:Kindness From The Queen
00:09:51.424                             : en:A New Acquaintance
00:16:47.131                             : en:The Storming Of The Bastille
00:23:18.980                             : en:The King's Reply
00:30:38.586                             : en:Restless Night
00:37:37.463                             : en:Preparing To Leave
00:41:57.515                             : en:Confidences
00:49:42.562                             : en:Conflicting Requests
00:54:10.080                             : en:The King's Decision
01:03:06.657                             : en:The Queen And The Duchess
01:09:09.812                             : en:Panic At The Castle
01:17:48.705                             : en:The King's Departure
01:21:24.504                             : en:Request From The Queen
01:27:19.609                             : en:Masquerade
01:33:23.598                             : en:End Credits
Other forum [Profile] [PM]
Display posts from previous:    
Reply to topic

The time now is: Today 10:12

All times are GMT + 3 Hours



You cannot post new topics in this forum
You cannot reply to topics in this forum
You cannot edit your posts in this forum
You cannot delete your posts in this forum
You cannot vote in polls in this forum
You cannot attach files in this forum
You cannot download files in this forum