Today is a free download without charge Download

Темный поток / Dark Feed (Майкл Расмуссен / Michael Rasmussen, Шон Расмуссен / Shawn Rasmussen) [2013, США, ужасы, Web-DL 720p] VO (den904) + Original (Eng) + Sub (Eng)

Reply to topic
 
Author
Message

Omen ®

Longevity: 8 years 5 months

Posts: 181087

Торрент-статистика

Post 13-Apr-2013 00:28

[Quote]

Темный поток / Dark Feed Страна: США
Студия: Rasmussen Brothers Productions
Жанр: ужасы
Год выпуска: 2013
Продолжительность: 01:25:27
Перевод: Одноголосый закадровый den904
Cубтитры: английские
Оригинальная аудиодорожка: английский
Режиссер: Майкл Расмуссен / Michael Rasmussen, Шон Расмуссен / Shawn Rasmussen
В ролях: Эвалена Мари, Дэйна Казинс, Тори Наджент, Ребекка Уитехёрст, Майкл Скотт Аллен, Andy Rudick, Джейсон Бобьен, Джессика Лорен Напье, Джонатан Томсон, Ивэн Сэндерсон
Описание:
Съемочная группа отправляется в заброшенную психиатрическую больницу с темным прошлым, чтобы снять низкобюджетный фильм ужасов. Они и не подозревали, насколько дорого в итоге им придётся заплатить…
- || || -Тип релиза: Web-DL 720p
Контейнер: MKV
Видео: AVC (x264), 1280x718 (16:9) at 23,976 fps, 3957 Кbps, 0.180 bpp
Аудио 1: AC3; 448 Kbps; CBR; 6 ch; 48 khz | VO - den904 |
Аудио 2: AC3; 448 Kbps; CBR; 6 ch; 48 khz | Английский |
Формат субтитров: softsub (SRT)

Скриншоты || x264 Info || MediaInfo || Notes

Notes:

Цитата:

MediaInfo

Код:
Общее
Уникальный идентификатор                 : 220086583109705346768490842066057299488 (0xA5932252DCDCE738960CD692256A0620)
Полное имя                               : Темный поток.2013.L1.720p.WEB-DL.x264-NGB.mkv
Формат                                   : Matroska
Версия формата                           : Version 4 / Version 2
Размер файла                             : 2,97 Гбайт
Продолжительность                        : 1 ч. 25 м.
Общий поток                              : 4952 Кбит/сек
Название фильма                          : profile.php?mode=viewprofile&u=22488948
Дата кодирования                         : UTC 2013-04-12 08:09:39
Программа кодирования                    : mkvmerge v6.1.0 ('Old Devil') built on Mar  2 2013 14:32:37
Библиотека кодирования                   : libebml v1.3.0 + libmatroska v1.4.0
Видео
Идентификатор                            : 1
Формат                                   : AVC
Формат/Информация                        : Advanced Video Codec
Профиль формата                          : [email protected]
Параметр CABAC формата                   : Нет
Параметр ReFrames формата                : 2 кадра
Идентификатор кодека                     : V_MPEG4/ISO/AVC
Продолжительность                        : 1 ч. 25 м.
Битрейт                                  : 3957 Кбит/сек
Ширина                                   : 1280 пикселей
Высота                                   : 718 пикселей
Соотношение сторон                       : 16:9
Режим частоты кадров                     : Постоянный
Частота кадров                           : 23,976 кадра/сек
Цветовое пространство                    : YUV
Субдискретизация насыщенности            : 4:2:0
Битовая глубина                          : 8 бит
Тип развёртки                            : Прогрессивная
Бит/(Пиксели*Кадры)                      : 0.180
Размер потока                            : 2,38 Гбайт (80%)
Язык                                     : English
Default                                  : Да
Forced                                   : Нет
Основные цвета                           : BT.709
Характеристики трансфера                 : BT.709
Коэффициенты матрицы                     : BT.709
Аудио #1
Идентификатор                            : 2
Формат                                   : AC-3
Формат/Информация                        : Audio Coding 3
Расширение режима                        : CM (complete main)
Параметр Endianness формата              : Big
Идентификатор кодека                     : A_AC3
Продолжительность                        : 1 ч. 25 м.
Вид битрейта                             : Постоянный
Битрейт                                  : 448 Кбит/сек
Каналы                                   : 6 каналов
Расположение каналов                     : Front: L C R, Side: L R, LFE
Частота                                  : 48,0 КГц
Битовая глубина                          : 16 бит
Метод сжатия                             : С потерями
Размер потока                            : 275 Мбайт (9%)
Заголовок                                : VO [den904]
Язык                                     : Russian
Default                                  : Да
Forced                                   : Нет
Аудио #2
Идентификатор                            : 3
Формат                                   : AC-3
Формат/Информация                        : Audio Coding 3
Расширение режима                        : CM (complete main)
Параметр Endianness формата              : Big
Идентификатор кодека                     : A_AC3
Продолжительность                        : 1 ч. 25 м.
Вид битрейта                             : Постоянный
Битрейт                                  : 448 Кбит/сек
Каналы                                   : 6 каналов
Расположение каналов                     : Front: L C R, Side: L R, LFE
Частота                                  : 48,0 КГц
Битовая глубина                          : 16 бит
Метод сжатия                             : С потерями
Размер потока                            : 275 Мбайт (9%)
Язык                                     : English
Default                                  : Нет
Forced                                   : Нет
Текст
Идентификатор                            : 4
Формат                                   : UTF-8
Идентификатор кодека                     : S_TEXT/UTF8
Идентификатор кодека/Информация          : UTF-8 Plain Text
Язык                                     : English
Default                                  : Нет
Forced                                   : Нет
Меню
00:00:00.000                             : en:Chapter 1
00:08:41.000                             : en:Chapter 2
00:17:28.000                             : en:Chapter 3
00:25:07.000                             : en:Chapter 4
00:34:57.000                             : en:Chapter 5
00:44:34.000                             : en:Chapter 6
00:51:41.000                             : en:Chapter 7
01:01:07.000                             : en:Chapter 8
01:09:44.000                             : en:Chapter 9
01:15:55.000                             : en:Chapter 10
01:23:47.000                             : en:Chapter 11
- -
Other forum [Profile] [PM]
Display posts from previous:    
Reply to topic

The time now is: Today 03:51

All times are GMT + 3 Hours



You cannot post new topics in this forum
You cannot reply to topics in this forum
You cannot edit your posts in this forum
You cannot delete your posts in this forum
You cannot vote in polls in this forum
You cannot attach files in this forum
You cannot download files in this forum