Today is a free download without charge Download

Три идиота / 3 Idiots (Раджкумар Хирани) [2009 г., драма, мелодрама, комедия, BDRip720p]

Reply to topic
 
Author
Message

Delia ®

Gender:

Longevity: 9 years 6 months

Posts: 1821

Торрент-статистика

Post 16-Jul-2011 18:17

[Quote]

Три идиота3 Idiots
Год выпуска: 2009
Страна: Индия
Жанр: драма, мелодрама, комедия
Продолжительность: 02:51:07
Перевод: Профессиональный (многоголосый, закадровый)
Режиссер: Раджкумар Хирани
Продюссер: Видху Винод Чопра, Вир Чопра, Anil Davda
Сценарий: Видху Винод Чопра, Раджкумар Хирани, Абхиджит Джоши
Премьера в мире: 23 декабря 2009
В ролях: Аамир Кхан, Карина Капур, Шарман Джоши, Мадхаван, Боман Ирани, Оми Вайдя, Rajeev Ravindranathan, Джавед Джеффри, Али Фазал, Мона Синх
Описание: Двое друзей отправляются на поиски пропавшего приятеля. В этом путешествии им предстоит постоянно ввязываться в уже давно забытые споры, расстроить чужую свадьбу и побывать на похоронах. Их дорога проходит через опасные места. И тут начинается еще одно не совсем обычное путешествие друзей дорогами их памяти. Они вспоминают своего приятеля, неудержимого и свободомыслящего Ранчо, который каким-то удивительным образом ворвался в их жизнь и все в ней изменил. Они вспоминают те времена, когда все они жили в студенческом общежитии. Вспоминают о том, как зарождалась любовь Ранчо к бойкой девушке Пиа и о конфликте Ранчо с его наставником, настоящим тираном Виру Сахастрабудхе. И вот однажды Ранчо вдруг исчезает... Кем он был на самом деле? Откуда он родом? Почему исчез?
Качество: BDRip720p
Формат: MKV
Видео кодек: H.264
Аудио кодек: AC3
Видео: English, 4000 Кбит/сек, 1280*544 (2,35:1), в 24,000 кадр/сек, AVC ([email protected])
Аудио: Russian, 640 Кбит/сек, 48,0 КГц, 16 бит, 6 канала(ов), AC-3 | MVO - BBC Saint Petersburg, по заказу BLUEBIRD
Аудио:English, 320 Кбит/сек, 48,0 КГц, 16 бит, 6 канала(ов), AC-3
Субтитры:Russian, English - VobSub

MI:

Общее
Уникальный идентификатор : 220737073236709308959666659378043716617 (0xA61069F68CAFBCC7A5A157D703968409)
Полное имя : F:\торрент\3 Idiots (2009).BDRip720p.mkv
Формат : Matroska
Размер файла : 5,94 Гбайт
Продолжительность : 2 ч. 51 м.
Общий поток : 4970 Кбит/сек
Дата кодирования : UTC 2011-07-16 14:06:06
Программа кодирования : mkvmerge v4.9.1 ('Ich will') built on Jul 11 2011 23:53:15
Библиотека кодирования : libebml v1.2.1 + libmatroska v1.1.1
Видео
Идентификатор : 1
Формат : AVC
Формат/Информация : Advanced Video Codec
Профиль формата : [email protected]
Параметр CABAC формата : Да
Параметр ReFrames формата : 8 кадры
Идентификатор кодека : V_MPEG4/ISO/AVC
Продолжительность : 2 ч. 51 м.
Битрейт : 4000 Кбит/сек
Ширина : 1280 пикс.
Высота : 544 пикс.
Соотношение сторон : 2,35:1
Частота кадров : 24,000 кадр/сек
Цветовое пространство : YUV
Подвыборка цветности : 4:2:0
Битовая глубина : 8 бит
Тип развёртки : Прогрессивная
Бит/(Пиксели*Кадры) : 0.239
Размер потока : 4,68 Гбайт (79%)
Библиотека кодирования : x264 core 116 r2019 9cc407d
Настройки программы : cabac=1 / ref=8 / deblock=1:-3:-3 / analyse=0x3:0x133 / me=umh / subme=7 / psy=1 / psy_rd=1.00:0.15 / mixed_ref=1 / me_range=32 / chroma_me=1 / trellis=2 / 8x8dct=1 / cqm=0 / deadzone=21,11 / fast_pskip=0 / chroma_qp_offset=-3 / threads=6 / sliced_threads=0 / nr=0 / decimate=1 / interlaced=0 / bluray_compat=0 / constrained_intra=0 / bframes=6 / b_pyramid=2 / b_adapt=2 / b_bias=0 / direct=3 / weightb=1 / open_gop=0 / weightp=2 / keyint=250 / keyint_min=24 / scenecut=40 / intra_refresh=0 / rc_lookahead=50 / rc=2pass / mbtree=1 / bitrate=4000 / ratetol=1.0 / qcomp=0.60 / qpmin=0 / qpmax=69 / qpstep=4 / cplxblur=20.0 / qblur=0.5 / ip_ratio=1.40 / aq=1:1.00
Язык : English
Аудио #1
Идентификатор : 2
Формат : AC-3
Формат/Информация : Audio Coding 3
Расширение режима : CM (complete main)
Идентификатор кодека : A_AC3
Продолжительность : 2 ч. 51 м.
Вид битрейта : Постоянный
Битрейт : 640 Кбит/сек
Канал(ы) : 6 канала(ов)
Расположение каналов : Front: L C R, Side: L R, LFE
Частота : 48,0 КГц
Битовая глубина : 16 бит
Метод сжатия : С потерями
Размер потока : 783 Мбайт (13%)
Язык : Russian
Аудио #2
Идентификатор : 3
Формат : AC-3
Формат/Информация : Audio Coding 3
Расширение режима : CM (complete main)
Идентификатор кодека : A_AC3
Продолжительность : 2 ч. 51 м.
Вид битрейта : Постоянный
Битрейт : 320 Кбит/сек
Канал(ы) : 6 канала(ов)
Расположение каналов : Front: L C R, Side: L R, LFE
Частота : 48,0 КГц
Битовая глубина : 16 бит
Метод сжатия : С потерями
Размер потока : 392 Мбайт (6%)
Язык : English
Текст #1
Идентификатор : 4
Формат : VobSub
Режим смешивания : zlib
Идентификатор кодека : S_VOBSUB
Идентификатор кодека/Информация : The same subtitle format used on DVDs
Язык : Russian
Текст #2
Идентификатор : 5
Формат : VobSub
Режим смешивания : zlib
Идентификатор кодека : S_VOBSUB
Идентификатор кодека/Информация : The same subtitle format used on DVDs
Язык : English
Меню
00:00:00.000 : en:00:00:00.000
00:01:07.375 : en:00:01:07.375
00:08:23.042 : en:00:08:23.042
00:13:24.417 : en:00:13:24.417
00:18:07.667 : en:00:18:07.667
00:23:13.000 : en:00:23:13.000
00:28:49.250 : en:00:28:49.250
00:30:02.208 : en:00:30:02.208
00:31:29.042 : en:00:31:29.042
00:37:09.250 : en:00:37:09.250
00:44:34.000 : en:00:44:34.000
00:59:55.333 : en:00:59:55.333
01:06:27.500 : en:01:06:27.500
01:14:12.083 : en:01:14:12.083
01:20:47.125 : en:01:20:47.125
01:25:03.417 : en:01:25:03.417
01:28:24.833 : en:01:28:24.833
01:36:50.833 : en:01:36:50.833
01:42:58.417 : en:01:42:58.417
01:47:41.042 : en:01:47:41.042
01:52:03.000 : en:01:52:03.000
01:58:04.708 : en:01:58:04.708
02:09:01.542 : en:02:09:01.542
02:11:40.667 : en:02:11:40.667
02:18:18.625 : en:02:18:18.625
02:24:14.333 : en:02:24:14.333
02:37:46.042 : en:02:37:46.042

Скриншоты

                 

_________________
Человек – это канат, натянутый между животным и сверхчеловеком, – канат над пропастью.
В человеке ценно то, что он мост, а не цель. Фридрих Ницше


Last edited by Delia on 2011-08-26 17:54; edited 2 times in total
Other forum [Profile] [PM]
Display posts from previous:    
Reply to topic

The time now is: Today 08:58

All times are GMT + 3 Hours



You cannot post new topics in this forum
You cannot reply to topics in this forum
You cannot edit your posts in this forum
You cannot delete your posts in this forum
You cannot vote in polls in this forum
You cannot attach files in this forum
You cannot download files in this forum