Today is a free download without charge Download

Тьма / Darkness (Режиссер: Хайме Балагуэро / Jaume Balagueró) [2002, США, Испания, ужасы, триллер, детектив, BDRip 720p] Dub + Sub Rus + Original Eng

Reply to topic
 
Author
Message

Omen ®

Longevity: 8 years 5 months

Posts: 181087

Торрент-статистика

Post 12-Apr-2013 15:56

[Quote]

Тьма / Darkness
Страна: США, Испания
Жанр: ужасы, триллер, детектив
Год выпуска: 2002
Продолжительность: 01:42:31
Перевод: Профессиональный (дублированный)
Cубтитры: русские
Оригинальная аудиодорожка: английский
Режиссер: Режиссер: Хайме Балагуэро / Jaume Balagueró
В ролях: Анна Пакуин, Лена Улин, Айэйн Глен, Джанкарло Джаннини, Феле Мартинес, Стефан Энквист, Ферми Рейксач, Франсеск Пахес, Крэйг Стивенсон,
Паула Фернандез
Описание: Вернувшись в Испанию после долгого пребывания в Америке, семья юной Регины поселяется в старом величественном особняке, пустовавшем почти 40 лет. Вскоре ее младшему брату начинает казаться, что в холодных стенах их нового дома присутствует кто-то невидимый и страшный. Пугающие, необъяснимые события и странное поведение отца семейства подсказывают детям, что их мрачная обитель хранит некую зловещую тайну. Близится солнечное затмение. Поставит ли тьма точку в их бесконечных кошмарах или навсегда погрузит их в бездну всепоглощающего ужаса?
Сэмпл
Тип релиза: BDRip 720p
Контейнер: MKV
Видео: MPEG-4 AVC; 1280x528; 4858 Kbps; 23,976 fps
Аудио 1: Russian: AC3; 448 Kbps; 6 ch; 48 khz
Аудио 2: English: AC3; 448 Kbps; 6 ch; 48 khz
Формат субтитров: softsub (SRT)

MediaInfo

General
Unique ID : 204281245273378552691852154204902652956 (0x99AF23010E788F84935A070D42FFFC1C)
Complete name : Darkness.2002.x264.BDRip720p.mkv
Format : Matroska
File size : 4.12 GiB
Duration : 1h 42mn
Overall bit rate : 5 755 Kbps
Movie name : Darkness.2002.x264.BDRip720p BDA
Encoded date : UTC 2010-02-22 21:41:31
Writing application : mkvmerge v5.9.0 ('On The Loose') built on Dec 9 2012 15:37:01
Writing library : libebml v1.3.0 + libmatroska v1.4.0
Video
ID : 1
Format : AVC
Format/Info : Advanced Video Codec
Format profile : [email protected]
Format settings, CABAC : Yes
Format settings, ReFrames : 8 frames
Codec ID : V_MPEG4/ISO/AVC
Duration : 1h 42mn
Bit rate : 4 858 Kbps
Width : 1 280 pixels
Height : 528 pixels
Display aspect ratio : 2.40:1
Frame rate : 23.976 fps
Color space : YUV
Chroma subsampling : 4:2:0
Bit depth : 8 bits
Scan type : Progressive
Bits/(Pixel*Frame) : 0.300
Stream size : 3.40 GiB (82%)
Title : Darkness.2002.x264.BDRip720p
Writing library : x264 core 129 r2230 1cffe9f
Encoding settings : cabac=1 / ref=8 / deblock=1:-3:-3 / analyse=0x3:0x133 / me=umh / subme=9 / psy=1 / psy_rd=1.00:0.00 / mixed_ref=1 / me_range=24 / chroma_me=1 / trellis=2 / 8x8dct=1 / cqm=0 / deadzone=21,11 / fast_pskip=1 / chroma_qp_offset=-2 / threads=6 / lookahead_threads=1 / sliced_threads=0 / nr=0 / decimate=1 / interlaced=0 / bluray_compat=0 / constrained_intra=0 / bframes=3 / b_pyramid=2 / b_adapt=2 / b_bias=0 / direct=3 / weightb=1 / open_gop=0 / weightp=2 / keyint=240 / keyint_min=23 / scenecut=40 / intra_refresh=0 / rc_lookahead=60 / rc=2pass / mbtree=1 / bitrate=4858 / ratetol=1.0 / qcomp=0.60 / qpmin=10 / qpmax=51 / qpstep=4 / cplxblur=20.0 / qblur=0.5 / vbv_maxrate=40000 / vbv_bufsize=40000 / nal_hrd=none / ip_ratio=1.40 / aq=1:1.00
Language : English
Audio #1
ID : 2
Format : AC-3
Format/Info : Audio Coding 3
Mode extension : CM (complete main)
Codec ID : A_AC3
Duration : 1h 42mn
Bit rate mode : Constant
Bit rate : 448 Kbps
Channel(s) : 6 channels
Channel positions : Front: L C R, Side: L R, LFE
Sampling rate : 48.0 KHz
Bit depth : 16 bits
Compression mode : Lossy
Stream size : 328 MiB (8%)
Language : Russian
Audio #2
ID : 3
Format : AC-3
Format/Info : Audio Coding 3
Mode extension : CM (complete main)
Codec ID : A_AC3
Duration : 1h 42mn
Bit rate mode : Constant
Bit rate : 448 Kbps
Channel(s) : 6 channels
Channel positions : Front: L C R, Side: L R, LFE
Sampling rate : 48.0 KHz
Bit depth : 16 bits
Compression mode : Lossy
Stream size : 328 MiB (8%)
Language : English
Text
ID : 4
Format : UTF-8
Codec ID : S_TEXT/UTF8
Codec ID/Info : UTF-8 Plain Text
Language : Russian
Menu
00:00:00.000 : en:00:00:00.000
00:09:37.660 : en:00:09:37.660
00:15:23.381 : en:00:15:23.381
00:23:41.879 : en:00:23:41.879
00:29:44.241 : en:00:29:44.241
00:36:59.509 : en:00:36:59.509
00:44:49.312 : en:00:44:49.312
00:48:13.891 : en:00:48:13.891
00:54:52.915 : en:00:54:52.915
01:02:26.201 : en:01:02:26.201
01:06:01.958 : en:01:06:01.958
01:12:12.954 : en:01:12:12.954
01:17:14.755 : en:01:17:14.755
01:25:38.759 : en:01:25:38.759
01:31:56.511 : en:01:31:56.511

Скриншоты


x264

---[NoImage] x264 [info]: frame I:1453 Avg QP:12.63 size: 77035
---[NoImage] x264 [info]: frame P:42648 Avg QP:14.31 size: 36526
---[NoImage] x264 [info]: frame B:103376 Avg QP:15.77 size: 19979
---[NoImage] x264 [info]: consecutive B-frames: 2.8% 4.1% 21.0% 72.1%
---[NoImage] x264 [info]: mb I I16..4: 20.9% 67.3% 11.8%
---[NoImage] x264 [info]: mb P I16..4: 3.9% 11.9% 1.0% P16..4: 27.2% 21.9% 14.0% 0.8% 0.2% skip:19.2%
---[NoImage] x264 [info]: mb B I16..4: 0.5% 2.8% 0.2% B16..8: 38.5% 19.8% 6.9% direct: 5.4% skip:25.9% L0:48.1% L1:37.8% BI:14.2%
---[NoImage] x264 [info]: 8x8 transform intra:73.1% inter:54.3%
---[NoImage] x264 [info]: direct mvs spatial:25.7% temporal:74.3%
---[NoImage] x264 [info]: coded y,uvDC,uvAC intra: 74.5% 77.2% 57.2% inter: 40.1% 32.7% 4.3%
---[NoImage] x264 [info]: i16 v,h,dc,p: 85% 6% 5% 5%
---[NoImage] x264 [info]: i8 v,h,dc,ddl,ddr,vr,hd,vl,hu: 11% 8% 13% 9% 13% 12% 11% 11% 12%
---[NoImage] x264 [info]: i4 v,h,dc,ddl,ddr,vr,hd,vl,hu: 12% 9% 8% 9% 14% 14% 12% 11% 12%
---[NoImage] x264 [info]: i8c dc,h,v,p: 50% 21% 17% 12%
---[NoImage] x264 [info]: Weighted P-Frames: Y:14.1% UV:3.2%
---[NoImage] x264 [info]: ref P L0: 40.4% 8.0% 18.5% 9.8% 7.8% 5.9% 5.1% 3.3% 1.1% 0.1%
---[NoImage] x264 [info]: ref B L0: 58.1% 18.1% 10.3% 5.7% 4.1% 2.5% 1.1%
---[NoImage] x264 [info]: ref B L1: 88.9% 11.1%
---[NoImage] x264 [info]: kb/s:4857.72
---[NoImage] encoded 147477 frames, 8.39 fps, 4857.72 kb/s
Other forum [Profile] [PM]
Display posts from previous:    
Reply to topic

The time now is: Today 11:19

All times are GMT + 3 Hours



You cannot post new topics in this forum
You cannot reply to topics in this forum
You cannot edit your posts in this forum
You cannot delete your posts in this forum
You cannot vote in polls in this forum
You cannot attach files in this forum
You cannot download files in this forum