Today is a free download without charge Download

Секс и ничего лишнего / My Awkward Sexual Adventure (Шон Гэррити / Sean Garrity) [2012, Канада, комедия, BDRip 1080p] MVO + Sub Rus + Original Eng

Reply to topic
 
Author
Message

Omen ®

Longevity: 8 years 5 months

Posts: 181087

Торрент-статистика

Post 12-Apr-2013 15:56

[Quote]

Секс и ничего лишнего / My Awkward Sexual Adventure-«Комедия, которая доведёт вас до О...»- Страна: Канада
Студия: Banana-Moon Sky Films, Julijette, Kosher Sexy Films
Жанр: комедия
Год выпуска: 2012
Продолжительность: 01:43:23-Перевод: Профессиональный (многоголосый закадровый)
Cубтитры: русские
Оригинальная аудиодорожка: английский-Режиссер: Шон Гэррити / Sean Garrity
В ролях: Йонас Черник, Эмили Хэмпшир, Сара Мэннинен, Вик Сахай, Мелисса Мари Елиас,
Аиша Альфа, Онали Эймс, Рэнди Апостл, Майк Белл, Джессика Бёрлсон-Описание: Чтобы вернуть свою неудовлетворенную бывшую девушку, консервативный бухгалтер Джордан Абрамс заручается поддержкой Юлии — раскованной экзотической танцовщицы, которая отправляет его на поиски сексуального опыта, что открывает перед ним мир стрип-клубов, чувственных массажных салонов, переодеваний в женскую одежду и садомазохизма.- -Тип релиза: BDRip 1080p
Контейнер: MKV-Видео: AVC; 1920x1080; 16:9; 24,000 fps; 11,0 Mbps
Аудио 1: Russian (DTS, 6 ch, 1510 kbps, 48,0 КГц)
Аудио 2: English (DTS, 6 ch, 1510 kbps, 48,0 КГц)
Формат субтитров: softsub (SRT)

MediaInfo

Общее
Уникальный идентификатор : 236062593388759871548541563838386785386 (0xB1980071C06AB10DA54315DE0DADCC6A)
Полное имя : F:Seks.i.nichego.lishnego.2012.BDRip.1080p.mkv
Формат : Matroska
Размер файла : 10,1 Гбайт
Продолжительность : 1 ч. 43 м.
Общий поток : 14,0 Мбит/сек
Дата кодирования : UTC 2013-04-12 09:48:04
Программа кодирования : mkvmerge v5.8.0 ('No Sleep / Pillow') built on Sep 2 2012 15:37:04
Библиотека кодирования : libebml v1.2.3 + libmatroska v1.3.0
Видео
Идентификатор : 1
Формат : AVC
Формат/Информация : Advanced Video Codec
Профиль формата : [email protected]
Параметр CABAC формата : Да
Параметр ReFrames формата : 4 кадра
Параметры GOP формата : M=10, N=24
Идентификатор кодека : V_MPEG4/ISO/AVC
Продолжительность : 1 ч. 43 м.
Битрейт : 11,0 Мбит/сек
Ширина : 1920 пикс.
Высота : 1080 пикс.
Соотношение сторон : 16:9
Частота кадров : 24,000 кадр/сек
Цветовое пространство : YUV
Подвыборка цветности : 4:2:0
Битовая глубина : 8 бит
Тип развёртки : Прогрессивная
Бит/(Пиксели*Кадры) : 0.221
Размер потока : 7,73 Гбайт (76%)
Библиотека кодирования : x264 core 130 r2273 b3065e6
Настройки программы : cabac=1 / ref=4 / deblock=1:-1:-1 / analyse=0x1:0x131 / me=umh / subme=9 / psy=1 / psy_rd=1.00:0.15 / mixed_ref=1 / me_range=24 / chroma_me=1 / trellis=2 / 8x8dct=0 / cqm=0 / deadzone=21,11 / fast_pskip=1 / chroma_qp_offset=-3 / threads=6 / lookahead_threads=1 / sliced_threads=0 / nr=0 / decimate=1 / interlaced=0 / bluray_compat=0 / constrained_intra=0 / bframes=9 / b_pyramid=2 / b_adapt=2 / b_bias=0 / direct=3 / weightb=1 / open_gop=0 / weightp=2 / keyint=240 / keyint_min=24 / scenecut=40 / intra_refresh=0 / rc_lookahead=60 / rc=2pass / mbtree=1 / bitrate=10985 / ratetol=1.0 / qcomp=0.60 / qpmin=0 / qpmax=69 / qpstep=4 / cplxblur=20.0 / qblur=0.5 / vbv_maxrate=50000 / vbv_bufsize=50000 / nal_hrd=none / ip_ratio=1.40 / aq=1:1.00
Язык : English
Аудио #1
Идентификатор : 2
Формат : DTS
Формат/Информация : Digital Theater Systems
Идентификатор кодека : A_DTS
Продолжительность : 1 ч. 43 м.
Вид битрейта : Постоянный
Битрейт : 1510 Кбит/сек
Каналы : 6 каналов
Расположение каналов : Front: L C R, Side: L R, LFE
Частота : 48,0 КГц
Битовая глубина : 16 бит
Метод сжатия : С потерями
Размер потока : 1,09 Гбайт (11%)
Язык : Russian
Аудио #2
Идентификатор : 3
Формат : DTS
Формат/Информация : Digital Theater Systems
Идентификатор кодека : A_DTS
Продолжительность : 1 ч. 43 м.
Вид битрейта : Постоянный
Битрейт : 1510 Кбит/сек
Каналы : 6 каналов
Расположение каналов : Front: L C R, Side: L R, LFE
Частота : 48,0 КГц
Битовая глубина : 16 бит
Метод сжатия : С потерями
Размер потока : 1,09 Гбайт (11%)
Язык : English
Текст
Идентификатор : 4
Формат : UTF-8
Идентификатор кодека : S_TEXT/UTF8
Идентификатор кодека/Информация : UTF-8 Plain Text
Язык : Russian
Меню
00:00:00.000 : en:00:00:00.000
00:05:17.625 : en:00:05:17.625
00:10:47.250 : en:00:10:47.250
00:21:32.708 : en:00:21:32.708
00:32:26.667 : en:00:32:26.667
00:40:38.917 : en:00:40:38.917
00:51:19.417 : en:00:51:19.417
00:59:48.708 : en:00:59:48.708
01:11:45.125 : en:01:11:45.125
01:21:30.667 : en:01:21:30.667
01:25:48.750 : en:01:25:48.750
01:32:39.708 : en:01:32:39.708

Скриншоты

Other forum [Profile] [PM]
Display posts from previous:    
Reply to topic

The time now is: Today 11:35

All times are GMT + 3 Hours



You cannot post new topics in this forum
You cannot reply to topics in this forum
You cannot edit your posts in this forum
You cannot delete your posts in this forum
You cannot vote in polls in this forum
You cannot attach files in this forum
You cannot download files in this forum