Today is a free download without charge Download

Выхожу тебя искать-2 / Сезон 2 / Серии: 1-2 из 12 ( Сергей Бобров (II)) [2013, Мелодрама, SATRip]

Reply to topic
 
Author
Message

Omen ®

Longevity: 9 years 1 month

Posts: 181086

Торрент-статистика

Post 12-Apr-2013 11:48

[Quote]

Выхожу тебя искать-2
Год выпуска: 2013
Производство: RWS
Жанр: Мелодрама
Продолжительность: ~0:52:00 серия
Субтитры: Украинские (вшитые)
Режиссёр: Сергей Бобров (II)
В ролях: Ольга Арнтгольц, Константин Соловьёв, Николай Иванов (III), Наташа Швец (II), Даниил Кокин, Алексей Лунёв, Максим Туранцев, Татьяна Косач-Брындина, Дмитрий Ендальцев, Ирина Бразговка, Жанна Эппле, Эрик Дик, Сергей Шеховцов, Елена Старостина (II), Александр Зельский, Надежда Евтехова, Марина Петренко, Владимир Жарков, Лилия Разакова, Дмитрий Мазуров
Описание: Прошло почти четыре года. Братья Демировы работают всё в том же отделе "Р". Михаил, похоже, остепенился. У него длительные - двухлетние - отношения с девушкой. Живут под одной крышей, строят планы на будущее, все идет к свадьбе. В семье у Дениса тоже всё замечательно. Единственное, что омрачает жизнь - отсутствие детей. После очередного безрезультатного курса лечения, Ольга решается на усыновление. Денис на словах тоже "за".Рита вынуждена обратиться за помощью к Демировым - её приемный отец, доктор Высоцкий, уехал в Москву в командировку, и не вернулся. Рита пробует самостоятельно искать его по горячим следам, но в конце концов приходит в отдел "Р" к Демировым за помощью. Когда становится очевидно, что следствие будет долгим, Рита принимает предложение вернуться в отдел на работу, и заниматься поисками отца в свободное от основной работы время. Но Рита не рассказывает братьям всю правду – три года назад она родила от Дениса дочь…

Качество: SATRip
Формат: AVI
Видео кодек: XviD
Аудио кодек: MP3
Видео: 704x400 (1.76:1), 25 fps, XviD build 50 ~1700 kbps avg, 0.24 bit/pixel
Аудио: 48 kHz, MPEG Layer 3, 2 ch, ~128.00 kbps avg
Сторонней рекламы нет!

MediaInfo

ОбщееПолное имя : E:\Downloads\55\Выхожу тебя искать 2 XviD\Выхожу тебя искать 2_01_серия_SATRip_XviD_by_Серый1779.aviФормат : AVIФормат/Информация : Audio Video InterleaveРазмер файла : 675 МбайтПродолжительность : 51 м.Общий поток : 1839 Кбит/секПрограмма кодирования : VirtualDubMod 1.5.10.3 | www.virtualdub-fr.org || (build 2550/release)Библиотека кодирования : VirtualDubMod build 2550/release
ВидеоИдентификатор : 0Формат : MPEG-4 VisualПрофиль формата : Advanced [email protected]Параметр BVOP формата : 2Параметр QPel формата : НетПараметр GMC формата : Без точки переходаПараметр матрицы формата : Default (MPEG)Идентификатор кодека : XVIDИдентификатор кодека/Подсказка : XviDПродолжительность : 51 м.Битрейт : 1701 Кбит/секШирина : 704 пикс.Высота : 400 пикс.Соотношение сторон : 16:9Частота кадров : 25,000 кадр/секЦветовое пространство : YUVПодвыборка цветности : 4:2:0Битовая глубина : 8 битТип развёртки : ПрогрессивнаяМетод сжатия : С потерямиБит/(Пиксели*Кадры) : 0.242Размер потока : 625 Мбайт (93%)Библиотека кодирования : XviD 1.2.1 (UTC 2008-12-04)
АудиоИдентификатор : 1Формат : MPEG AudioВерсия формата : Version 1Профиль формата : Layer 3Идентификатор кодека : 55Идентификатор кодека/Подсказка : MP3Продолжительность : 51 м.Вид битрейта : ПостоянныйБитрейт : 128 Кбит/секКаналы : 2 каналаЧастота : 48,0 КГцМетод сжатия : С потерямиРазмер потока : 47,0 Мбайт (7%)Выравнивание : Соединение по промежуткамПродолжительность промежутка : 40 мс. (1,00 видеокадр)Время предзагрузки промежутка : 504 msБиблиотека кодирования : LAME3.98rНастройки программы : -m s -V 4 -q 2 -lowpass 17 -b 128

Внимание ! Раздача ведётся путём добавления новых серий

Внимание! Раздача ведётся путём добавления новых серий; при каждом добавлении создётся новый торрент. Чтобы начать докачку новой серии, пользователям необходимо сделать следующее:
(1) остановить скачивание,
(2) удалить старый торрент у себя из клиента (старые серии удалять не надо),
(3) скачать новый торрент и запустить его у себя в клиенте вместо старого, при этом указать клиенту путь в старую папку куда и должно происходить скачивание новых серий.
Ваш клиент при этом должен произвести хеширование (проверку) старой папки (если не производит сам - помогите ему сделать это), и будет докачивать только те серии которых у вас ещё нет. Старые серии при этом не удаляются, а продолжают раздаваться!
Eсли вы уже удалили старые серии, то предотвратить повторную закачку старых серий можно, отжав галочку в соответсвующих местах при запуске нового торрента. По возможности, желательно не удалять старые серии как можно дольше чтобы релизёр не столько продолжал раздавать старые серии, а смог сконцентрироваться на новых.
ВНИМАНИЕ! ТОРРЕНТ ПЕРЕЗАЛИТ! ДОБАВЛЕНА 2-ая СЕРИИ!

Скриншоты

Other forum [Profile] [PM]
Display posts from previous:    
Reply to topic

The time now is: Today 23:47

All times are GMT + 3 Hours



You cannot post new topics in this forum
You cannot reply to topics in this forum
You cannot edit your posts in this forum
You cannot delete your posts in this forum
You cannot vote in polls in this forum
You cannot attach files in this forum
You cannot download files in this forum