Today is a free download without charge Download

Сердца в Атлантиде / Hearts in Atlantis (Скотт Хикс / Scott Hicks) [2001 г., Драма, мистика, WEB-DL 720p] DUB + MVO x 3 + AVO (Живов) + Original + Subs (rus, eng)

Reply to topic
 
Author
Message

Omen ®

Longevity: 8 years 5 months

Posts: 181087

Торрент-статистика

Post 12-Apr-2013 07:43

[Quote]

Сердца в Атлантиде / Hearts in Atlantis Страна: США, Австралия
Жанр: Драма, мистика
Год выпуска: 2001
Продолжительность: 01:40:56-Перевод 1: Профессиональный (полное дублирование)
Перевод 2: Профессиональный (многоголосый закадровый)
Перевод 3: Профессиональный (многоголосый закадровый)
Перевод 4: Профессиональный (многоголосый закадровый)
Перевод 5: Авторский (одноголосый закадровый) |Ю. Живов|
Cубтитры: английские, русские
Оригинальная аудиодорожка: английский -Режиссер: Скотт Хикс / Scott Hicks-В ролях-Энтони Хопкинс, Антон Ельчин, Хоуп Дэвис, Мика Бурем, Дэвид Морс, Алан Тьюдик, Том Бауэр, Селия Уэстон, Адам ЛеФевр-Описание-Бобби Гарфилд возвращается в свой родной городок на похороны друга своего детства. Там Бобби вспоминает лето 1960 года, когда весь мир изменился для него. История начинается, когда одиннадцатилетний Бобби и его лучшие друзья Кэрол и Салли-Джон наслаждаются своим безмятежным детством. В это время в жизни Бобби появляется таинственный незнакомец Тед, который пытается завоевать внимание Бобби. Мальчик внезапно получает то, чего в действительности так не хватает в его жизни - любовь родителей. Его мама, Лиз, озлоблена смертью отца Бобби и не уделяет достаточного внимания своему сыну. Тед заполняет эту пустоту в жизни мальчика, открывая глаза Бобби на мир вокруг него и помогая понять ему свои чувства к Кэрол и к своей матери. Но у Теда есть свои тайны, глубоко запрятанные в его душе, и Бобби пытается остановить грозящую старику опасность...-Качество видео: WEB-DL-Контейнер: MKV-Видео: AVC, 1280x542 (2,35:1), ~4094 kbps, 23,976 fps,
Аудио: AC-3, 384 kbps, Dolby Digital, 3/2 (L,C,R,l,r) + LFE ch, 48 KHz |Дубляж|
Аудио: AC-3, 384 kbps, Dolby Digital, 3/2 (L,C,R,l,r) + LFE ch, 48 KHz |MVO_1|
Аудио: AC-3, 384 kbps, Dolby Digital, 3/2 (L,C,R,l,r) + LFE ch, 48 KHz |AVO_Живов|
Аудио: AC-3, 384 kbps, Dolby Digital, 3/2 (L,C,R,l,r) + LFE ch, 48 KHz |MVO_2|
Аудио: AC-3, 384 kbps, Dolby Digital, 3/2 (L,C,R,l,r) + LFE ch, 48 KHz |MVO_3|
Аудио: AC-3, 384 kbps, Dolby Digital, 3/2 (L,C,R,l,r) + LFE ch, 48 KHz |Original|
Формат субтитров: softsub (SRT)
Главы: есть-

MediaInfo

Полное имя : H:\Hearts.in.Atlantis_2001_720p.WEB-DL.mkv
Формат : Matroska
Версия формата : Version 2
Размер файла : 4,60 Гбайт
Продолжительность : 1 ч. 40 м.
Общий поток : 6528 Кбит/сек
Название фильма : Сердца в Атлантиде / Hearts in Atlantis
Дата кодирования : UTC 2013-04-11 21:26:30
Программа кодирования : mkvmerge v5.5.0 ('Healer') built on Apr 24 2012 23:47:03
Библиотека кодирования : libebml v1.2.3 + libmatroska v1.3.0
Видео
Идентификатор : 1
Формат : AVC
Формат/Информация : Advanced Video Codec
Профиль формата : [email protected]
Параметр CABAC формата : Нет
Параметр ReFrames формата : 2 кадра
Параметр GOP формата : N=1
Идентификатор кодека : V_MPEG4/ISO/AVC
Продолжительность : 1 ч. 40 м.
Битрейт : 4094 Кбит/сек
Ширина : 1280 пикселей
Высота : 542 пикселя
Соотношение сторон : 2,35:1
Частота кадров : 23,976 кадра/сек
Цветовое пространство : YUV
Субдискретизация насыщенности : 4:2:0
Битовая глубина : 8 бит
Тип развёртки : Прогрессивная
Бит/(Пиксели*Кадры) : 0.246
Размер потока : 2,89 Гбайт (63%)
Заголовок : Hearts in Atlantis
Язык : English
Default : Да
Forced : Нет
Основные цвета : BT.709-5, BT.1361, IEC 61966-2-4, SMPTE RP177
Характеристики трансфера : BT.709-5, BT.1361
Коэффициенты матрицы : BT.709-5, BT.1361, IEC 61966-2-4 709, SMPTE RP177
Аудио #1
Идентификатор : 2
Формат : AC-3
Формат/Информация : Audio Coding 3
Расширение режима : CM (complete main)
Параметр Endianness формата : Big
Идентификатор кодека : A_AC3
Продолжительность : 1 ч. 40 м.
Вид битрейта : Постоянный
Битрейт : 384 Кбит/сек
Каналы : 6 каналов
Расположение каналов : Front: L C R, Side: L R, LFE
Частота : 48,0 КГц
Битовая глубина : 16 бит
Метод сжатия : С потерями
Размер потока : 277 Мбайт (6%)
Заголовок : AC3 5.1 @ 384 kbps DUB
Язык : Russian
Default : Да
Forced : Нет
Аудио #2
Идентификатор : 3
Формат : AC-3
Формат/Информация : Audio Coding 3
Расширение режима : CM (complete main)
Параметр Endianness формата : Big
Идентификатор кодека : A_AC3
Продолжительность : 1 ч. 40 м.
Вид битрейта : Постоянный
Битрейт : 384 Кбит/сек
Каналы : 6 каналов
Расположение каналов : Front: L C R, Side: L R, LFE
Частота : 48,0 КГц
Битовая глубина : 16 бит
Метод сжатия : С потерями
Задержка видео : 3 с. 598 мс.
Размер потока : 277 Мбайт (6%)
Заголовок : MVO_1
Язык : Russian
Default : Нет
Forced : Нет
Аудио #3
Идентификатор : 4
Формат : AC-3
Формат/Информация : Audio Coding 3
Расширение режима : CM (complete main)
Параметр Endianness формата : Big
Идентификатор кодека : A_AC3
Продолжительность : 1 ч. 40 м.
Вид битрейта : Постоянный
Битрейт : 384 Кбит/сек
Каналы : 6 каналов
Расположение каналов : Front: L C R, Side: L R, LFE
Частота : 48,0 КГц
Битовая глубина : 16 бит
Метод сжатия : С потерями
Задержка видео : 3 с. 598 мс.
Размер потока : 277 Мбайт (6%)
Заголовок : AVO_Живов
Язык : Russian
Default : Нет
Forced : Нет
Аудио #4
Идентификатор : 5
Формат : AC-3
Формат/Информация : Audio Coding 3
Расширение режима : CM (complete main)
Параметр Endianness формата : Big
Идентификатор кодека : A_AC3
Продолжительность : 1 ч. 40 м.
Вид битрейта : Постоянный
Битрейт : 384 Кбит/сек
Каналы : 6 каналов
Расположение каналов : Front: L C R, Side: L R, LFE
Частота : 48,0 КГц
Битовая глубина : 16 бит
Метод сжатия : С потерями
Задержка видео : 3 с. 598 мс.
Размер потока : 277 Мбайт (6%)
Заголовок : MVO_2
Язык : Russian
Default : Нет
Forced : Нет
Аудио #5
Идентификатор : 6
Формат : AC-3
Формат/Информация : Audio Coding 3
Расширение режима : CM (complete main)
Параметр Endianness формата : Big
Идентификатор кодека : A_AC3
Продолжительность : 1 ч. 40 м.
Вид битрейта : Постоянный
Битрейт : 384 Кбит/сек
Каналы : 6 каналов
Расположение каналов : Front: L C R, Side: L R, LFE
Частота : 48,0 КГц
Битовая глубина : 16 бит
Метод сжатия : С потерями
Задержка видео : 3 с. 598 мс.
Размер потока : 277 Мбайт (6%)
Заголовок : MVO_3
Язык : Russian
Default : Нет
Forced : Нет
Аудио #6
Идентификатор : 7
Формат : AC-3
Формат/Информация : Audio Coding 3
Расширение режима : CM (complete main)
Параметр Endianness формата : Big
Идентификатор кодека : A_AC3
Продолжительность : 1 ч. 40 м.
Вид битрейта : Постоянный
Битрейт : 384 Кбит/сек
Каналы : 2 канала
Расположение каналов : Front: L R
Частота : 48,0 КГц
Битовая глубина : 16 бит
Метод сжатия : С потерями
Задержка видео : 3 с. 598 мс.
Размер потока : 277 Мбайт (6%)
Заголовок : Original
Язык : English
Default : Нет
Forced : Нет
Текст #1
Идентификатор : 8
Формат : UTF-8
Идентификатор кодека : S_TEXT/UTF8
Идентификатор кодека/Информация : UTF-8 Plain Text
Default : Да
Forced : Нет
Текст #2
Идентификатор : 9
Формат : UTF-8
Идентификатор кодека : S_TEXT/UTF8
Идентификатор кодека/Информация : UTF-8 Plain Text
Default : Нет
Forced : Нет
Меню
00:00:00.000 : en:1
00:09:43.000 : en:2
00:19:05.000 : en:3
00:28:22.000 : en:4
00:41:31.000 : en:5
00:43:32.000 : en:6
00:48:43.000 : en:7
01:01:58.000 : en:8
01:02:55.000 : en:9
01:12:52.000 : en:10
01:18:17.000 : en:11
01:24:52.000 : en:12
01:27:30.000 : en:13
01:33:55.000 : en:14
01:35:35.000 : en:15
01:36:16.000 : en:16

Скриншоты

Дополнительно

Звуковые дорожки и субтитры взяты с ЭТОЙ раздачи
Other forum [Profile] [PM]
Similar theme
Forum Topic Author Torrent Replies Last Post
./templates/default/images/folder_dl.gif Современная проза, классика, поэзия Цвейг Стефан - Нетерпение сердца [Терновский Евгений, 2016 г., 96 kbps, MP3] Omen
1 | 0

0 | 426

0

2016-05-06 21:03
Omen Latest
Display posts from previous:    
Reply to topic

The time now is: Today 13:25

All times are GMT + 3 Hours



You cannot post new topics in this forum
You cannot reply to topics in this forum
You cannot edit your posts in this forum
You cannot delete your posts in this forum
You cannot vote in polls in this forum
You cannot attach files in this forum
You cannot download files in this forum