Today is a free download without charge Download

Discovery. Как устроена Вселенная / Discovery. How the Universe Works (2010) BDRemux [1080i]

Reply to topic
 
Author
Message

UndegraundMen ®

Longevity: 7 years 7 months

Posts: 25145

Торрент-статистика

Post 12-Apr-2013 00:03

[Quote]

Discovery. Как устроена Вселенная / Discovery. How the Universe Works (2010) BDRemux [1080i]- Русское название: Discovery. Как устроена Вселенная
Оригинальное название: Discovery. How the Universe Works
Режиссер / Телекомпания: Лорни Тауненд, Питер Чинн, Louise Say, Shaun Trevisick
Год выпуска: 2010
Жанр: Документальный
Описание:
Очередная великолепная передача канала Discovery. Здесь нам расскажут теорию о том как образовалась вселенная, галактики, солнечные системы, планеты, звезды и т. д. И все это очень красиво нарисовано. В действительности тема космоса одна из наиболее интересных тем. Ведь мы даже не знаем все процессы нашей галактики, а есть ещё миллиарды других, незнакомых нам галактик.Сейчас мы живем в «золотом веке астрономических открытий». Ведь именно сейчас с развитием технологий, применяемых в телескопах и спутниках, ученые открывают то, что буквально 50 лет назад казалось абсурдным. И не смотря на это остается ещё масса вопросов, на которые пока нет ответа.
Ведь немногие задавались вопросом «почему нашей солнечной системе так повезло, почему нам так повезло». Если бы наша планета располагалась чуть ближе к солнцу, то испарилась бы вода, чуть дальше и вода бы замерзла. И тогда не было бы нас, ведь вода — главный источник зарождения жизни.
Ведь немногие знают, что если бы планета Юпитер располагалась не там, где она есть, то наша Земля стала бы в сотни раз уязвимее для всевозможных камет и прочих космических тел. Можно писать тут ещё очень и очень много, но лучше всего сесть и посмотреть. Не думаю, что кого нибудь этот сериал оставит равнодушным.

Продолжительность: 8 x ~ 00:43:00
Перевод: Одноголосый закадровый, профессиональный
Формат: MKV
Видеокодек: MPEG-4/H.264 AVC
Битрейт видео: ~18-23 Mbps 30 fps
Размер кадра: 1920x1080
Качество видео: BDRemux [1080i]
Аудиокодек: DTS
Битрейт аудио:
Аудио 1: DTS 5.1 755 kbps 24bit/48kHz [Russian]
Аудио 2: DTS 5.1 1510 kbps 24bit/48kHz [English]

Перечень серий

S01E01. Большой взрыв (Big Bang). Как из ничего возникла наша Вселенная? Вы узнаете, как она разрослась из крошечной точки меньше атомной частицы до сегодняшнего безграничного космоса.
S01E02. Черные дыры (Black Holes). Черные дыры - самые мощные машины уничтожения во Вселенной и самая большая ее загадка. Современная астрономия доказывает, что они могут влиять на все, что мы видим.
S01E03. Галактики (Galaxies). Познакомьтесь с эволюцией галактик от облаков холодного газа, витавшего в вакууме 13 миллиардов лет назад, до великолепных спиралей, за которыми можно наблюдать ночью.
S01E04. Звезды (Stars). Посмотрите, как во Вселенной возникли звезды, как они, в свою очередь, породили новые поколения звезд и планет, как появились основные элементы, из которых зародилась жизнь.
S01E05. Сверхновые (Supernovas). Жизнь возникла в результате невероятно обширных взрывов сверхновых звезд, которые разбросали по Вселенной элементы из центра звезд. Что они могут рассказать о нашем прошлом?
S01E06. Планеты (Extreme Planets). Познакомьтесь со странными планетами, которые населяют нашу Вселенную - от гигантских шаров пылающего газа до ледяных сирот межзвездного пространства.
S01E07. Солнечные системы (Solar Systems). С момента открытия первой вращающейся вокруг звезды планеты было обнаружено около 280 солнечных систем. Отправляйтесь за пределы нашей Солнечной системы на познание Вселенной
S01E08. Спутники (Moons). Правда ли, что жизнь вероятнее всего найти на лунах? В нашей Солнечной системе 300 лун, которые могут рассказать о бурном прошлом Земли.

MediaInfo

S01E01. Большой взрыв (Big Bang).mkv

Формат : Matroska
Версия формата : Version 2
Размер файла : 7,36 Гбайт
Продолжительность : 43 м.
Режим общего битрейта : Переменный
Общий поток : 24,4 Мбит/сек
Дата кодирования : UTC 2012-09-14 16:05:41
Программа кодирования : mkvmerge v5.8.0 ('No Sleep / Pillow') built on Sep 2 2012 15:37:04
Библиотека кодирования : libebml v1.2.3 + libmatroska v1.3.0
Видео
Идентификатор : 1
Формат : AVC
Формат/Информация : Advanced Video Codec
Профиль формата : [url=mailto:[email protected]][email protected][/url]
Параметр CABAC формата : Да
Параметр ReFrames формата : 3 кадра
Параметр GOP формата : M=3, N=15
Идентификатор кодека : V_MPEG4/ISO/AVC
Продолжительность : 43 м.
Вид битрейта : Переменный
Битрейт : 21,7 Мбит/сек
Максимальный битрейт : 35,0 Мбит/сек
Ширина : 1920 пикселей
Высота : 1080 пикселей
Соотношение сторон : 16:9
Режим частоты кадров : Постоянный
Частота кадров : 30,000 кадров/сек
Частота кадров в оригинале : 29,970 кадров/сек
Стандарт вещания : NTSC
Цветовое пространство : YUV
Субдискретизация насыщенности : 4:2:0
Битовая глубина : 8 бит
Тип развёртки : Чересстрочная
Порядок развёртки : Верхнее поле первое
Бит/(Пиксели*Кадры) : 0.348
Размер потока : 6,53 Гбайт (89%)
Заголовок : BDRemux 1920x1080i H.264 ~21 Mbps 60 fps
Язык : English
Default : Да
Forced : Нет
Основные цвета : BT.709
Характеристики трансфера : BT.709
Коэффициенты матрицы : BT.709
Аудио #1
Идентификатор : 2
Формат : DTS
Формат/Информация : Digital Theater Systems
Режим : 16
Параметр Endianness формата : Big
Идентификатор кодека : A_DTS
Продолжительность : 43 м.
Вид битрейта : Постоянный
Битрейт : 755 Кбит/сек
Каналы : 6 каналов
Расположение каналов : Front: L C R, Side: L R, LFE
Частота : 48,0 КГц
Битовая глубина : 24 бит
Метод сжатия : С потерями
Размер потока : 233 Мбайт (3%)
Заголовок : DTS 5.1 755 kbps 24b/48k (неизвестный проф.)
Язык : Russian
Default : Да
Forced : Нет
Аудио #2
Идентификатор : 3
Формат : DTS
Формат/Информация : Digital Theater Systems
Режим : 16
Параметр Endianness формата : Big
Идентификатор кодека : A_DTS
Продолжительность : 43 м.
Вид битрейта : Постоянный
Битрейт : 1510 Кбит/сек
Каналы : 6 каналов
Расположение каналов : Front: L C R, Side: L R, LFE
Частота : 48,0 КГц
Битовая глубина : 24 бит
Метод сжатия : С потерями
Размер потока : 466 Мбайт (6%)
Заголовок : Original DTS 5.1 1510 kbps 24b/48k
Язык : English
Default : Нет
Forced : Нет

Черные дыры (Black Holes).mkv

Формат : Matroska
Версия формата : Version 2
Размер файла : 7,84 Гбайт
Продолжительность : 43 м.
Режим общего битрейта : Переменный
Общий поток : 26,0 Мбит/сек
Дата кодирования : UTC 2012-09-17 12:41:51
Программа кодирования : mkvmerge v5.8.0 ('No Sleep / Pillow') built on Sep 2 2012 15:37:04
Библиотека кодирования : libebml v1.2.3 + libmatroska v1.3.0
Видео
Идентификатор : 1
Формат : AVC
Формат/Информация : Advanced Video Codec
Профиль формата : [url=mailto:[email protected]][email protected][/url]
Параметр CABAC формата : Да
Параметр ReFrames формата : 3 кадра
Параметр GOP формата : M=3, N=15
Идентификатор кодека : V_MPEG4/ISO/AVC
Продолжительность : 43 м.
Вид битрейта : Переменный
Битрейт : 23,2 Мбит/сек
Максимальный битрейт : 35,0 Мбит/сек
Ширина : 1920 пикселей
Высота : 1080 пикселей
Соотношение сторон : 16:9
Режим частоты кадров : Постоянный
Частота кадров : 30,000 кадров/сек
Частота кадров в оригинале : 29,970 кадров/сек
Стандарт вещания : NTSC
Цветовое пространство : YUV
Субдискретизация насыщенности : 4:2:0
Битовая глубина : 8 бит
Тип развёртки : Чересстрочная
Порядок развёртки : Верхнее поле первое
Бит/(Пиксели*Кадры) : 0.374
Размер потока : 7,00 Гбайт (89%)
Заголовок : BDRemux 1920x1080i H.264 ~23 Mbps 60 fps
Язык : English
Default : Да
Forced : Нет
Основные цвета : BT.709
Характеристики трансфера : BT.709
Коэффициенты матрицы : BT.709
Аудио #1
Идентификатор : 2
Формат : DTS
Формат/Информация : Digital Theater Systems
Режим : 16
Параметр Endianness формата : Big
Идентификатор кодека : A_DTS
Продолжительность : 43 м.
Вид битрейта : Постоянный
Битрейт : 755 Кбит/сек
Каналы : 6 каналов
Расположение каналов : Front: L C R, Side: L R, LFE
Частота : 48,0 КГц
Битовая глубина : 24 бит
Метод сжатия : С потерями
Размер потока : 233 Мбайт (3%)
Заголовок : DTS 5.1 755 kbps 24b/48k (неизвестный проф.)
Язык : Russian
Default : Да
Forced : Нет
Аудио #2
Идентификатор : 3
Формат : DTS
Формат/Информация : Digital Theater Systems
Режим : 16
Параметр Endianness формата : Big
Идентификатор кодека : A_DTS
Продолжительность : 43 м.
Вид битрейта : Постоянный
Битрейт : 1510 Кбит/сек
Каналы : 6 каналов
Расположение каналов : Front: L C R, Side: L R, LFE
Частота : 48,0 КГц
Битовая глубина : 24 бит
Метод сжатия : С потерями
Размер потока : 466 Мбайт (6%)
Заголовок : Original DTS 5.1 1510 kbps 24b/48k
Язык : English
Default : Нет
Forced : Нет

S01E03. Галактики (Galaxies).mkv

Формат : Matroska
Версия формата : Version 2
Размер файла : 7,61 Гбайт
Продолжительность : 43 м.
Режим общего битрейта : Переменный
Общий поток : 25,3 Мбит/сек
Дата кодирования : UTC 2012-09-17 12:46:27
Программа кодирования : mkvmerge v5.8.0 ('No Sleep / Pillow') built on Sep 2 2012 15:37:04
Библиотека кодирования : libebml v1.2.3 + libmatroska v1.3.0
Видео
Идентификатор : 1
Формат : AVC
Формат/Информация : Advanced Video Codec
Профиль формата : [url=mailto:[email protected]][email protected][/url]
Параметр CABAC формата : Да
Параметр ReFrames формата : 3 кадра
Идентификатор кодека : V_MPEG4/ISO/AVC
Продолжительность : 43 м.
Вид битрейта : Переменный
Битрейт : 22,5 Мбит/сек
Максимальный битрейт : 35,0 Мбит/сек
Ширина : 1920 пикселей
Высота : 1080 пикселей
Соотношение сторон : 16:9
Режим частоты кадров : Постоянный
Частота кадров : 30,000 кадров/сек
Частота кадров в оригинале : 29,970 кадров/сек
Стандарт вещания : NTSC
Цветовое пространство : YUV
Субдискретизация насыщенности : 4:2:0
Битовая глубина : 8 бит
Тип развёртки : Чересстрочная
Порядок развёртки : Верхнее поле первое
Бит/(Пиксели*Кадры) : 0.362
Размер потока : 6,78 Гбайт (89%)
Заголовок : BDRemux 1920x1080i H.264 ~22 Mbps 60 fps
Язык : English
Default : Да
Forced : Нет
Основные цвета : BT.709
Характеристики трансфера : BT.709
Коэффициенты матрицы : BT.709
Аудио #1
Идентификатор : 2
Формат : DTS
Формат/Информация : Digital Theater Systems
Режим : 16
Параметр Endianness формата : Big
Идентификатор кодека : A_DTS
Продолжительность : 43 м.
Вид битрейта : Постоянный
Битрейт : 755 Кбит/сек
Каналы : 6 каналов
Расположение каналов : Front: L C R, Side: L R, LFE
Частота : 48,0 КГц
Битовая глубина : 24 бит
Метод сжатия : С потерями
Размер потока : 233 Мбайт (3%)
Заголовок : DTS 5.1 755 kbps 24b/48k (неизвестный проф.)
Язык : Russian
Default : Да
Forced : Нет
Аудио #2
Идентификатор : 3
Формат : DTS
Формат/Информация : Digital Theater Systems
Режим : 16
Параметр Endianness формата : Big
Идентификатор кодека : A_DTS
Продолжительность : 43 м.
Вид битрейта : Постоянный
Битрейт : 1510 Кбит/сек
Каналы : 6 каналов
Расположение каналов : Front: L C R, Side: L R, LFE
Частота : 48,0 КГц
Битовая глубина : 24 бит
Метод сжатия : С потерями
Размер потока : 466 Мбайт (6%)
Заголовок : Original DTS 5.1 1510 kbps 24b/48k
Язык : English
Default : Нет
Forced : Нет

Звезды (Stars).mkv

Формат : Matroska
Версия формата : Version 2
Размер файла : 7,59 Гбайт
Продолжительность : 43 м.
Режим общего битрейта : Переменный
Общий поток : 25,2 Мбит/сек
Дата кодирования : UTC 2012-09-17 12:54:08
Программа кодирования : mkvmerge v5.8.0 ('No Sleep / Pillow') built on Sep 2 2012 15:37:04
Библиотека кодирования : libebml v1.2.3 + libmatroska v1.3.0
Видео
Идентификатор : 1
Формат : AVC
Формат/Информация : Advanced Video Codec
Профиль формата : [url=mailto:[email protected]][email protected][/url]
Параметр CABAC формата : Да
Параметр ReFrames формата : 3 кадра
Параметр GOP формата : M=3, N=15
Идентификатор кодека : V_MPEG4/ISO/AVC
Продолжительность : 43 м.
Вид битрейта : Переменный
Битрейт : 22,4 Мбит/сек
Максимальный битрейт : 35,0 Мбит/сек
Ширина : 1920 пикселей
Высота : 1080 пикселей
Соотношение сторон : 16:9
Режим частоты кадров : Постоянный
Частота кадров : 30,000 кадров/сек
Частота кадров в оригинале : 29,970 кадров/сек
Стандарт вещания : NTSC
Цветовое пространство : YUV
Субдискретизация насыщенности : 4:2:0
Битовая глубина : 8 бит
Тип развёртки : Чересстрочная
Порядок развёртки : Верхнее поле первое
Бит/(Пиксели*Кадры) : 0.360
Размер потока : 6,76 Гбайт (89%)
Заголовок : BDRemux 1920x1080i H.264 ~22 Mbps 60 fps
Язык : English
Default : Да
Forced : Нет
Основные цвета : BT.709
Характеристики трансфера : BT.709
Коэффициенты матрицы : BT.709
Аудио #1
Идентификатор : 2
Формат : DTS
Формат/Информация : Digital Theater Systems
Режим : 16
Параметр Endianness формата : Big
Идентификатор кодека : A_DTS
Продолжительность : 43 м.
Вид битрейта : Постоянный
Битрейт : 755 Кбит/сек
Каналы : 6 каналов
Расположение каналов : Front: L C R, Side: L R, LFE
Частота : 48,0 КГц
Битовая глубина : 24 бит
Метод сжатия : С потерями
Размер потока : 233 Мбайт (3%)
Заголовок : DTS 5.1 755 kbps 24b/48k (неизвестный проф.)
Язык : Russian
Default : Да
Forced : Нет
Аудио #2
Идентификатор : 3
Формат : DTS
Формат/Информация : Digital Theater Systems
Режим : 16
Параметр Endianness формата : Big
Идентификатор кодека : A_DTS
Продолжительность : 43 м.
Вид битрейта : Постоянный
Битрейт : 1510 Кбит/сек
Каналы : 6 каналов
Расположение каналов : Front: L C R, Side: L R, LFE
Частота : 48,0 КГц
Битовая глубина : 24 бит
Метод сжатия : С потерями
Размер потока : 466 Мбайт (6%)
Заголовок : Original DTS 5.1 1510 kbps 24b/48k
Язык : English
Default : Нет
Forced : Нет

S01E05. Сверхновые (Supernovas).mkv

Формат : Matroska
Версия формата : Version 2
Размер файла : 6,32 Гбайт
Продолжительность : 43 м.
Режим общего битрейта : Переменный
Общий поток : 21,0 Мбит/сек
Дата кодирования : UTC 2012-09-18 09:17:07
Программа кодирования : mkvmerge v5.8.0 ('No Sleep / Pillow') built on Sep 2 2012 15:37:04
Библиотека кодирования : libebml v1.2.3 + libmatroska v1.3.0
Видео
Идентификатор : 1
Формат : AVC
Формат/Информация : Advanced Video Codec
Профиль формата : [url=mailto:[email protected]][email protected][/url]
Параметр CABAC формата : Да
Параметр ReFrames формата : 3 кадра
Параметр GOP формата : M=3, N=15
Идентификатор кодека : V_MPEG4/ISO/AVC
Продолжительность : 43 м.
Вид битрейта : Переменный
Битрейт : 18,3 Мбит/сек
Максимальный битрейт : 35,0 Мбит/сек
Ширина : 1920 пикселей
Высота : 1080 пикселей
Соотношение сторон : 16:9
Режим частоты кадров : Постоянный
Частота кадров : 30,000 кадров/сек
Частота кадров в оригинале : 29,970 кадров/сек
Стандарт вещания : NTSC
Цветовое пространство : YUV
Субдискретизация насыщенности : 4:2:0
Битовая глубина : 8 бит
Тип развёртки : Чересстрочная
Порядок развёртки : Верхнее поле первое
Бит/(Пиксели*Кадры) : 0.294
Размер потока : 5,51 Гбайт (87%)
Заголовок : BDRemux 1920x1080i H.264 ~18 Mbps 60 fps
Язык : English
Default : Да
Forced : Нет
Основные цвета : BT.709
Характеристики трансфера : BT.709
Коэффициенты матрицы : BT.709
Аудио #1
Идентификатор : 2
Формат : DTS
Формат/Информация : Digital Theater Systems
Режим : 16
Параметр Endianness формата : Big
Идентификатор кодека : A_DTS
Продолжительность : 43 м.
Вид битрейта : Постоянный
Битрейт : 755 Кбит/сек
Каналы : 6 каналов
Расположение каналов : Front: L C R, Side: L R, LFE
Частота : 48,0 КГц
Битовая глубина : 24 бит
Метод сжатия : С потерями
Размер потока : 233 Мбайт (4%)
Заголовок : DTS 5.1 755 kbps 24b/48k (неизвестный проф.)
Язык : Russian
Default : Да
Forced : Нет
Аудио #2
Идентификатор : 3
Формат : DTS
Формат/Информация : Digital Theater Systems
Режим : 16
Параметр Endianness формата : Big
Идентификатор кодека : A_DTS
Продолжительность : 43 м.
Вид битрейта : Постоянный
Битрейт : 1510 Кбит/сек
Каналы : 6 каналов
Расположение каналов : Front: L C R, Side: L R, LFE
Частота : 48,0 КГц
Битовая глубина : 24 бит
Метод сжатия : С потерями
Размер потока : 466 Мбайт (7%)
Заголовок : Original DTS 5.1 1510 kbps 24b/48k
Язык : English
Default : Нет
Forced : Нет

S01E06. Планеты (Extreme Planets).mkv

Формат : Matroska
Версия формата : Version 2
Размер файла : 7,09 Гбайт
Продолжительность : 43 м.
Режим общего битрейта : Переменный
Общий поток : 23,5 Мбит/сек
Дата кодирования : UTC 2012-09-17 12:50:20
Программа кодирования : mkvmerge v5.8.0 ('No Sleep / Pillow') built on Sep 2 2012 15:37:04
Библиотека кодирования : libebml v1.2.3 + libmatroska v1.3.0
Видео
Идентификатор : 1
Формат : AVC
Формат/Информация : Advanced Video Codec
Профиль формата : [url=mailto:High[email protected]][email protected][/url]
Параметр CABAC формата : Да
Параметр ReFrames формата : 3 кадра
Параметр GOP формата : M=3, N=15
Идентификатор кодека : V_MPEG4/ISO/AVC
Продолжительность : 43 м.
Вид битрейта : Переменный
Битрейт : 20,8 Мбит/сек
Максимальный битрейт : 35,0 Мбит/сек
Ширина : 1920 пикселей
Высота : 1080 пикселей
Соотношение сторон : 16:9
Режим частоты кадров : Постоянный
Частота кадров : 30,000 кадров/сек
Частота кадров в оригинале : 29,970 кадров/сек
Стандарт вещания : NTSC
Цветовое пространство : YUV
Субдискретизация насыщенности : 4:2:0
Битовая глубина : 8 бит
Тип развёртки : Чересстрочная
Порядок развёртки : Верхнее поле первое
Бит/(Пиксели*Кадры) : 0.334
Размер потока : 6,26 Гбайт (88%)
Заголовок : BDRemux 1920x1080i H.264 ~20 Mbps 60 fps
Язык : English
Default : Да
Forced : Нет
Основные цвета : BT.709
Характеристики трансфера : BT.709
Коэффициенты матрицы : BT.709
Аудио #1
Идентификатор : 2
Формат : DTS
Формат/Информация : Digital Theater Systems
Режим : 16
Параметр Endianness формата : Big
Идентификатор кодека : A_DTS
Продолжительность : 43 м.
Вид битрейта : Постоянный
Битрейт : 755 Кбит/сек
Каналы : 6 каналов
Расположение каналов : Front: L C R, Side: L R, LFE
Частота : 48,0 КГц
Битовая глубина : 24 бит
Метод сжатия : С потерями
Размер потока : 233 Мбайт (3%)
Заголовок : DTS 5.1 755 kbps 24b/48k (неизвестный проф.)
Язык : Russian
Default : Да
Forced : Нет
Аудио #2
Идентификатор : 3
Формат : DTS
Формат/Информация : Digital Theater Systems
Режим : 16
Параметр Endianness формата : Big
Идентификатор кодека : A_DTS
Продолжительность : 43 м.
Вид битрейта : Постоянный
Битрейт : 1510 Кбит/сек
Каналы : 6 каналов
Расположение каналов : Front: L C R, Side: L R, LFE
Частота : 48,0 КГц
Битовая глубина : 24 бит
Метод сжатия : С потерями
Размер потока : 466 Мбайт (6%)
Заголовок : Original DTS 5.1 1510 kbps 24b/48k
Язык : English
Default : Нет
Forced : Нет

S01E07. Солнечные системы (Solar Systems).mkv

Формат : Matroska
Версия формата : Version 2
Размер файла : 6,24 Гбайт
Продолжительность : 42 м.
Режим общего битрейта : Переменный
Общий поток : 20,8 Мбит/сек
Дата кодирования : UTC 2012-09-18 09:20:03
Программа кодирования : mkvmerge v5.8.0 ('No Sleep / Pillow') built on Sep 2 2012 15:37:04
Библиотека кодирования : libebml v1.2.3 + libmatroska v1.3.0
Видео
Идентификатор : 1
Формат : AVC
Формат/Информация : Advanced Video Codec
Профиль формата : [url=mailto:[email protected]][email protected][/url]
Параметр CABAC формата : Да
Параметр ReFrames формата : 3 кадра
Идентификатор кодека : V_MPEG4/ISO/AVC
Продолжительность : 42 м.
Вид битрейта : Переменный
Битрейт : 18,1 Мбит/сек
Максимальный битрейт : 35,0 Мбит/сек
Ширина : 1920 пикселей
Высота : 1080 пикселей
Соотношение сторон : 16:9
Режим частоты кадров : Постоянный
Частота кадров : 30,000 кадров/сек
Частота кадров в оригинале : 29,970 кадров/сек
Стандарт вещания : NTSC
Цветовое пространство : YUV
Субдискретизация насыщенности : 4:2:0
Битовая глубина : 8 бит
Тип развёртки : Чересстрочная
Порядок развёртки : Верхнее поле первое
Бит/(Пиксели*Кадры) : 0.291
Размер потока : 5,44 Гбайт (87%)
Заголовок : BDRemux 1920x1080i H.264 ~18 Mbps 60 fps
Язык : English
Default : Да
Forced : Нет
Основные цвета : BT.709
Характеристики трансфера : BT.709
Коэффициенты матрицы : BT.709
Аудио #1
Идентификатор : 2
Формат : DTS
Формат/Информация : Digital Theater Systems
Режим : 16
Параметр Endianness формата : Big
Идентификатор кодека : A_DTS
Продолжительность : 42 м.
Вид битрейта : Постоянный
Битрейт : 755 Кбит/сек
Каналы : 6 каналов
Расположение каналов : Front: L C R, Side: L R, LFE
Частота : 48,0 КГц
Битовая глубина : 24 бит
Метод сжатия : С потерями
Размер потока : 232 Мбайт (4%)
Заголовок : DTS 5.1 755 kbps 24b/48k (неизвестный проф.)
Язык : Russian
Default : Да
Forced : Нет
Аудио #2
Идентификатор : 3
Формат : DTS
Формат/Информация : Digital Theater Systems
Режим : 16
Параметр Endianness формата : Big
Идентификатор кодека : A_DTS
Продолжительность : 42 м.
Вид битрейта : Постоянный
Битрейт : 1510 Кбит/сек
Каналы : 6 каналов
Расположение каналов : Front: L C R, Side: L R, LFE
Частота : 48,0 КГц
Битовая глубина : 24 бит
Метод сжатия : С потерями
Размер потока : 464 Мбайт (7%)
Заголовок : Original DTS 5.1 1510 kbps 24b/48k
Язык : English
Default : Нет
Forced : Нет

S01E08. Спутники (Moons).mkv

Формат : Matroska
Версия формата : Version 2
Размер файла : 6,31 Гбайт
Продолжительность : 43 м.
Режим общего битрейта : Переменный
Общий поток : 20,9 Мбит/сек
Дата кодирования : UTC 2012-09-18 09:23:14
Программа кодирования : mkvmerge v5.8.0 ('No Sleep / Pillow') built on Sep 2 2012 15:37:04
Библиотека кодирования : libebml v1.2.3 + libmatroska v1.3.0
Видео
Идентификатор : 1
Формат : AVC
Формат/Информация : Advanced Video Codec
Профиль формата : [url=mailto:[email protected]][email protected][/url]
Параметр CABAC формата : Да
Параметр ReFrames формата : 3 кадра
Идентификатор кодека : V_MPEG4/ISO/AVC
Продолжительность : 43 м.
Вид битрейта : Переменный
Битрейт : 18,3 Мбит/сек
Максимальный битрейт : 35,0 Мбит/сек
Ширина : 1920 пикселей
Высота : 1080 пикселей
Соотношение сторон : 16:9
Режим частоты кадров : Постоянный
Частота кадров : 30,000 кадров/сек
Частота кадров в оригинале : 29,970 кадров/сек
Стандарт вещания : NTSC
Цветовое пространство : YUV
Субдискретизация насыщенности : 4:2:0
Битовая глубина : 8 бит
Тип развёртки : Чересстрочная
Порядок развёртки : Верхнее поле первое
Бит/(Пиксели*Кадры) : 0.294
Размер потока : 5,50 Гбайт (87%)
Заголовок : BDRemux 1920x1080i H.264 ~18 Mbps 60 fps
Язык : English
Default : Да
Forced : Нет
Основные цвета : BT.709
Характеристики трансфера : BT.709
Коэффициенты матрицы : BT.709
Аудио #1
Идентификатор : 2
Формат : DTS
Формат/Информация : Digital Theater Systems
Режим : 16
Параметр Endianness формата : Big
Идентификатор кодека : A_DTS
Продолжительность : 43 м.
Вид битрейта : Постоянный
Битрейт : 755 Кбит/сек
Каналы : 6 каналов
Расположение каналов : Front: L C R, Side: L R, LFE
Частота : 48,0 КГц
Битовая глубина : 24 бит
Метод сжатия : С потерями
Размер потока : 233 Мбайт (4%)
Заголовок : DTS 5.1 755 kbps 24b/48k (неизвестный проф.)
Язык : Russian
Default : Да
Forced : Нет
Аудио #2
Идентификатор : 3
Формат : DTS
Формат/Информация : Digital Theater Systems
Режим : 16
Параметр Endianness формата : Big
Идентификатор кодека : A_DTS
Продолжительность : 43 м.
Вид битрейта : Постоянный
Битрейт : 1510 Кбит/сек
Каналы : 6 каналов
Расположение каналов : Front: L C R, Side: L R, LFE
Частота : 48,0 КГц
Битовая глубина : 24 бит
Метод сжатия : С потерями
Размер потока : 466 Мбайт (7%)
Заголовок : Original DTS 5.1 1510 kbps 24b/48k
Язык : English
Default : Нет
Forced : Нет
Скриншоты:

Дополнительные скриншоты

Other forum [Profile] [PM]
Display posts from previous:    
Reply to topic

The time now is: Today 22:51

All times are GMT + 3 Hours



You cannot post new topics in this forum
You cannot reply to topics in this forum
You cannot edit your posts in this forum
You cannot delete your posts in this forum
You cannot vote in polls in this forum
You cannot attach files in this forum
You cannot download files in this forum